Почти Рождество / All Is Bright (Фил Моррисон / Phil Morrison) [2013, США, драма, комедия, BDRip 720p] VO (Морозов) + Ukr + Original Eng + Sub (Rus, Eng)

Ответить на тему
 
Автор Сообщение

user ®

Стаж: 7 лет 7 месяцев

Сообщений: 20008

Пост Пост: #1 от 13-Сен-2015 20:15

[Цитировать]

Почти Рождество / All Is Bright
«All is busted. All is broke. All is bitter. All is BRIGHT»
________________________________________________________________________________________
Страна: США
Студия: GreeneStreet Films, Sidney Kimmel Entertainment, Touchy Feely Films
Жанр: Драма, комедия
Год выпуска: 2013
Продолжительность: 01:47:25
Перевод: Русский: Одноголосый закадровый |П. Морозов aka PashaUp, перевод - anton1|
Оригинальная аудиодорожка: Английский
Cубтитры: Русские (Notabenoid), английские (Full + SDH)
Режиссер: Фил Моррисон / Phil Morrison
В ролях: Пол Джаматти, Пол Радд, Салли Хокинс, Эми Ландекер, Майкл Дрэйер, Колман Доминго, Хэлли Фейффер, Никки М. Джеймс
Описание: Фильм расскажет о юмористических подвигах пары предприимчивых ребят, которые решают объединить свои усилия для того, чтобы быстро заработать денег на продаже елок в канун Рождества в Нью-Йорке.
________________________________________________________________________________________

Релиз: + добавлена украинская аудио дорожа, русские и английские (SDH) субтитры
Тип релиза: BDRip 720p
Контейнер: MKV
Видео: 1280x532, 23.976 fps, x264@L4.1, ~5777 kbps avg
Аудио 1: Russian: 48 kHz, DTS, 3/2 (L,C,R,l,r) + LFE ch, ~1536 kbps avg |Одноголосый закадровый, Павел Морозов aka PashaUp, перевод - anton1|
Аудио 2: Ukrainian: 48 kHz, AC3 Dolby Digital, 3/2 (L,C,R,l,r) + LFE ch, ~448.00 kbps avg |Многоголосый закадровый, Омикрон|
Аудио 3: English: 48 kHz, DTS, 3/2 (L,C,R,l,r) + LFE ch, ~1536 kbps avg |Original|
Cубтитры: Русские (Notabenoid), английские (Full + SDH)
Цитата:
  • Русские сабы не ахти
Скриншоты MediaInfo
General
Unique ID : 175398259401569713675775858935797047999 (0x83F479DAF8AD47F5AAD3746FD14AE2BF)
Complete name : D:\All.Is.Bright.2013.x264.BDRip.720p.Rus.Ukr.Eng.mkv
Format : Matroska
Format version : Version 4 / Version 2
File size : 6.94 GiB
Duration : 1h 47mn
Overall bit rate : 9 244 Kbps
Movie name : Почти Рождество / All Is Bright (2013)
Encoded date : UTC 2015-09-13 05:10:31
Writing application : mkvmerge v8.3.0 ('Over the Horizon') 64bit
Writing library : libebml v1.3.1 + libmatroska v1.4.2
Attachements : cover.jpg
DURATION : 01:47:24.736000000
NUMBER_OF_FRAMES : 201398
NUMBER_OF_BYTES : 360905216
_STATISTICS_WRITING_APP : mkvmerge v8.3.0 ('Over the Horizon') 64bit
_STATISTICS_WRITING_DATE_UT : 2015-09-13 05:10:31
_STATISTICS_TAGS : BPS DURATION NUMBER_OF_FRAMES NUMBER_OF_BYTES
Video
ID : 1
Format : AVC
Format/Info : Advanced Video Codec
Format profile : High@L4.1
Format settings, CABAC : Yes
Format settings, ReFrames : 8 frames
Codec ID : V_MPEG4/ISO/AVC
Duration : 1h 47mn
Bit rate : 5 777 Kbps
Width : 1 280 pixels
Height : 532 pixels
Display aspect ratio : 2.40:1
Frame rate mode : Constant
Frame rate : 23.976 fps
Color space : YUV
Chroma subsampling : 4:2:0
Bit depth : 8 bits
Scan type : Progressive
Bits/(Pixel*Frame) : 0.354
Stream size : 4.20 GiB (61%)
Title : All Is Bright (2013) BDRip 720p от NovaLan (Sergei7721)
Writing library : x264 core 146 r2538 121396c
Encoding settings : cabac=1 / ref=8 / deblock=1:-1:-1 / analyse=0x3:0x113 / me=umh / subme=11 / psy=1 / psy_rd=1.00:0.20 / mixed_ref=1 / me_range=32 / chroma_me=1 / trellis=2 / 8x8dct=1 / cqm=0 / deadzone=21,11 / fast_pskip=0 / chroma_qp_offset=-3 / threads=12 / lookahead_threads=1 / sliced_threads=0 / nr=0 / decimate=0 / interlaced=0 / bluray_compat=0 / constrained_intra=0 / bframes=6 / b_pyramid=2 / b_adapt=2 / b_bias=0 / direct=3 / weightb=1 / open_gop=0 / weightp=2 / keyint=240 / keyint_min=23 / scenecut=40 / intra_refresh=0 / rc_lookahead=40 / rc=2pass / mbtree=0 / bitrate=5777 / ratetol=1.0 / qcomp=0.60 / qpmin=0 / qpmax=69 / qpstep=4 / cplxblur=20.0 / qblur=0.5 / vbv_maxrate=50000 / vbv_bufsize=62500 / nal_hrd=none / filler=0 / ip_ratio=1.40 / pb_ratio=1.30 / aq=1:1.00
Language : English
Default : Yes
Forced : No
DURATION : 01:47:24.730000000
NUMBER_OF_FRAMES : 154519
NUMBER_OF_BYTES : 4650909800
_STATISTICS_WRITING_APP : mkvmerge v8.3.0 ('Over the Horizon') 64bit
_STATISTICS_WRITING_DATE_UT : 2015-09-13 05:10:31
_STATISTICS_TAGS : BPS DURATION NUMBER_OF_FRAMES NUMBER_OF_BYTES
Audio #1
ID : 2
Format : DTS
Format/Info : Digital Theater Systems
Mode : 16
Format settings, Endianness : Big
Codec ID : A_DTS
Duration : 1h 47mn
Bit rate mode : Constant
Bit rate : 1 509 Kbps
Channel(s) : 6 channels
Channel positions : Front: L C R, Side: L R, LFE
Sampling rate : 48.0 KHz
Bit depth : 24 bits
Compression mode : Lossy
Stream size : 1.13 GiB (16%)
Title : Одноголосый закадровый (П. Морозов aka PashaUp)
Language : Russian
Default : Yes
Forced : No
Audio #2
ID : 3
Format : AC-3
Format/Info : Audio Coding 3
Mode extension : CM (complete main)
Format settings, Endianness : Big
Codec ID : A_AC3
Duration : 1h 47mn
Bit rate mode : Constant
Bit rate : 448 Kbps
Channel(s) : 6 channels
Channel positions : Front: L C R, Side: L R, LFE
Sampling rate : 48.0 KHz
Bit depth : 16 bits
Compression mode : Lossy
Stream size : 344 MiB (5%)
Title : Многоголосый закадровый (Омикрон)
Language : Ukrainian
Default : No
Forced : No
Audio #3
ID : 4
Format : DTS
Format/Info : Digital Theater Systems
Mode : 16
Format settings, Endianness : Big
Codec ID : A_DTS
Duration : 1h 47mn
Bit rate mode : Constant
Bit rate : 1 509 Kbps
Channel(s) : 6 channels
Channel positions : Front: L C R, Side: L R, LFE
Sampling rate : 48.0 KHz
Bit depth : 24 bits
Compression mode : Lossy
Stream size : 1.13 GiB (16%)
Language : English
Default : No
Forced : No
Text #1
ID : 5
Format : UTF-8
Codec ID : S_TEXT/UTF8
Codec ID/Info : UTF-8 Plain Text
Title : Notabenoid
Language : Russian
Default : No
Forced : No
Text #2
ID : 6
Format : UTF-8
Codec ID : S_TEXT/UTF8
Codec ID/Info : UTF-8 Plain Text
Language : English
Default : No
Forced : No
Text #3
ID : 7
Format : UTF-8
Codec ID : S_TEXT/UTF8
Codec ID/Info : UTF-8 Plain Text
Title : SDH
Language : English
Default : No
Forced : No
Menu
00:00:00.000 : en:00:00:00.000
00:04:08.290 : en:00:04:08.290
00:12:22.825 : en:00:12:22.825
00:18:48.127 : en:00:18:48.127
00:27:04.957 : en:00:27:04.957
00:36:03.912 : en:00:36:03.912
00:41:11.761 : en:00:41:11.761
00:48:11.055 : en:00:48:11.055
00:55:49.054 : en:00:55:49.054
01:01:56.087 : en:01:01:56.087
01:06:58.765 : en:01:06:58.765
01:11:30.995 : en:01:11:30.995
01:16:56.487 : en:01:16:56.487
01:22:51.967 : en:01:22:51.967
01:32:17.407 : en:01:32:17.407
01:43:52.309 : en:01:43:52.309
Скачать

Скачать торрент!

Как скачивать? · Что такое торрент? · Рейтинг и ограничения

Сайт не распространяет и не хранит электронные версии произведений, а лишь предоставляет доступ к создаваемому пользователями каталогу ссылок на торрент-файлы, которые содержат только списки хеш-сумм

[Профиль] [ЛС]
Показать сообщения:    
Ответить на тему

Текущее время: Сегодня 08:37

Часовой пояс: GMT + 4



Вы не можете начинать темы
Вы не можете отвечать на сообщения
Вы не можете редактировать свои сообщения
Вы не можете удалять свои сообщения
Вы не можете голосовать в опросах
Вы не можете прикреплять файлы к сообщениям
Вы не можете скачивать файлы