Красотки в бегах / Hot Pursuit (Энн Флетчер / Anne Fletcher) [2015, США, Боевик, комедия, криминал, BDRip] Dub + Original (Eng) + Subs (Rus, Ukr, Eng)

Ответить на тему
 
Автор Сообщение

user ®

Стаж: 7 лет 7 месяцев

Сообщений: 20008

Пост Пост: #1 от 13-Сен-2015 20:15

[Цитировать]

Красотки в бегах / Hot Pursuit
«Вооружены и типа опасны»
- Год выпуска: 2015
Выпущено: США / Warner Bros. Pictures
Жанр: боевик, комедия, криминал
Продолжительность: 01:27:31
Перевод: Профессиональный (полное дублирование) BD EUR
Cубтитры: Русские (полные + форсированные), Украинские (полные + форсированные), Английские (полные, SDH, SDH-Colored) (внешние .srt*)
Оригинальная аудиодорожка: Английская-Режиссер:
Энн Флетчер / Anne Fletcher-В ролях:
Риз Уизерспун (Cooper), София Вергара (Daniella Riva), Мэттью Дель Негро (Detective Hauser), Майкл Мосли (Detective Dixon), Роберт Казински (Randy), Ричард Т. Джонс (Detective Jackson), Бенни Нивз (Jesus), Майкл Рэй Эскамиллья (Angel), Хоакин Косио (Vicente Cortez), Джон Кэрролл Линч (Captain Emmett)-Описание:
Сверхдобросовестный офицер полиции Купер гордится своим назначением на, казалось бы, простое задание — сопроводить жену мафиози, Даниэллу, через весь Техас в Даллас, где она и ее муж должны дать показания против крупного наркобарона. Однако при встрече с порывистой миссис Рива — колумбийской красоткой с пышными формами, чье упрямство столь же выразительно, как и ее акцент, — ей становится ясно, что поездка будет не простой.
И прежде чем они успевают договориться о том, сколько туфель на шпильках сможет взять с собой очаровашка Даниэлла, полицейские и мистер Рива попадают под обстрел, превращая жену последнего во вдову, а предполагаемую «легкую прогулку» из Сан-Антонио в Даллас — в прятки на выживание наперегонки с пулями!-Релиз групп [url=http://***/forum/viewtopic.php?t=1677970] [/url] | | IMDB | КиноПоиск | Сэмпл |-Качество: BDRip [BDRemux | 1080p | Кинозал]
Формат: AVI
Видео: 720x304 (2.37:1), 23.976 fps, XviD build 73 ~1605 kbps avg, 0.31 bit/pixel
Аудио #1: 48 kHz, AC3 Dolby Digital, 3/2 (L,C,R,l,r) + LFE ch, ~384.00 kbps avg (RUS)
Аудио #2: 48 kHz, AC3 Dolby Digital, 3/2 (L,C,R,l,r) + LFE ch, ~384.00 kbps avg (ENG)
-Скриншоты MediaInfo
General
Complete name                            : D:\Krasotki_v_begah_2015_BDRip_by_Dalemake.avi
Format                                   : AVI
Format/Info                              : Audio Video Interleave
File size                                : 1.46 GiB
Duration                                 : 1h 27mn
Overall bit rate                         : 2 388 Kbps
Writing application                      : VirtualDubMod 1.5.10.3 | www.virtualdub-fr.org || (build 2550/release)
Writing library                          : VirtualDubMod build 2550/release
Video
ID                                       : 0
Format                                   : MPEG-4 Visual
Format profile                           : Advanced Simple@L5
Format settings, BVOP                    : 1
Format settings, QPel                    : No
Format settings, GMC                     : No warppoints
Format settings, Matrix                  : Custom
Codec ID                                 : XVID
Codec ID/Hint                            : XviD
Duration                                 : 1h 27mn
Bit rate                                 : 1 606 Kbps
Width                                    : 720 pixels
Height                                   : 304 pixels
Display aspect ratio                     : 2.35:1
Frame rate                               : 23.976 fps
Color space                              : YUV
Chroma subsampling                       : 4:2:0
Bit depth                                : 8 bits
Scan type                                : Progressive
Compression mode                         : Lossy
Bits/(Pixel*Frame)                       : 0.306
Stream size                              : 1 005 MiB (67%)
Writing library                          : XviD 73
Audio #1
ID                                       : 1
Format                                   : AC-3
Format/Info                              : Audio Coding 3
Mode extension                           : CM (complete main)
Format settings, Endianness              : Big
Codec ID                                 : 2000
Duration                                 : 1h 27mn
Bit rate mode                            : Constant
Bit rate                                 : 384 Kbps
Channel(s)                               : 6 channels
Channel positions                        : Front: L C R, Side: L R, LFE
Sampling rate                            : 48.0 KHz
Bit depth                                : 16 bits
Compression mode                         : Lossy
Stream size                              : 240 MiB (16%)
Alignment                                : Split accross interleaves
Interleave, duration                     : 42 ms (1.00 video frame)
Interleave, preload duration             : 500 ms
Audio #2
ID                                       : 2
Format                                   : AC-3
Format/Info                              : Audio Coding 3
Mode extension                           : CM (complete main)
Format settings, Endianness              : Big
Codec ID                                 : 2000
Duration                                 : 1h 27mn
Bit rate mode                            : Constant
Bit rate                                 : 384 Kbps
Channel(s)                               : 6 channels
Channel positions                        : Front: L C R, Side: L R, LFE
Sampling rate                            : 48.0 KHz
Bit depth                                : 16 bits
Compression mode                         : Lossy
Stream size                              : 240 MiB (16%)
Alignment                                : Split accross interleaves
Interleave, duration                     : 42 ms (1.00 video frame)
Interleave, preload duration             : 500 ms
Сравнение
[url=http://***/forum/viewtopic.php?t=5067005]http://***/forum/viewtopic.php?t=5067005[/url]
http://screenshotcomparison.com/comparison/142264
+ Оригинал и субтитры
-
Скачать

Скачать торрент!

Как скачивать? · Что такое торрент? · Рейтинг и ограничения

Сайт не распространяет и не хранит электронные версии произведений, а лишь предоставляет доступ к создаваемому пользователями каталогу ссылок на торрент-файлы, которые содержат только списки хеш-сумм

[Профиль] [ЛС]
Показать сообщения:    
Ответить на тему

Текущее время: Сегодня 22:33

Часовой пояс: GMT + 4



Вы не можете начинать темы
Вы не можете отвечать на сообщения
Вы не можете редактировать свои сообщения
Вы не можете удалять свои сообщения
Вы не можете голосовать в опросах
Вы не можете прикреплять файлы к сообщениям
Вы не можете скачивать файлы