Красотки в бегах / Hot Pursuit (Энн Флетчер / Anne Fletcher) [2015, США, боевик, комедия, криминал, BDRip-AVC] Dub + Sub (rus, eng, ukr) + Original (Eng)

Ответить на тему
 
Автор Сообщение

user ®

Стаж: 7 лет 7 месяцев

Сообщений: 20008

Пост Пост: #1 от 13-Сен-2015 20:15

[Цитировать]

-Красотки в бегах / Hot Pursuit Страна: США
Жанр: боевик, комедия, криминал
Год выпуска: 2015
Продолжительность: 01:27:31-Перевод: Профессиональный (дублированный) |BD CEE|
Cубтитры: русские, английские, украинские
Оригинальная аудиодорожка: английский-Режиссер: Энн Флетчер / Anne Fletcher-В ролях-Риз Уизерспун, София Вергара, Мэттью Дель Негро, Майкл Мосли, Роберт Казински, Ричард Т. Джонс, Бенни Нивз, Майкл Рэй Эскамиллья, Хоакин Косио, Джон Кэрролл Линч.-Описание-Сверхдобросовестный офицер полиции Купер гордится своим назначением на, казалось бы, простое задание — сопроводить жену мафиози, Даниэллу, через весь Техас в Даллас, где она и ее муж должны дать показания против крупного наркобарона. Однако при встрече с порывистой миссис Рива — колумбийской красоткой с пышными формами, чье упрямство столь же выразительно, как и ее акцент, — ей становится ясно, что поездка будет не простой.
И прежде чем они успевают договориться о том, сколько туфель на шпильках сможет взять с собой очаровашка Даниэлла, полицейские и мистер Рива попадают под обстрел, превращая жену последнего во вдову, а предполагаемую «легкую прогулку» из Сан-Антонио в Даллас — в прятки на выживание наперегонки с пулями!
-Качество видео: BDRip
Исходное видео: [url=http://***/forum/viewtopic.php?t=5075415]Blu-ray disc [CEE][/url]-Контейнер: MKV-Видео: AVC, 1104х460 (2,40:1), ~2500 kbps, 23.976 fps
Аудио: AC-3, 448 kbps, Dolby Digital, 3/2 (L,C,R,l,r) + LFE ch, 48 KHz |Dub|
Аудио: AC-3, 448 kbps, Dolby Digital, 3/2 (L,C,R,l,r) + LFE ch, 48 KHz |Original|
Формат субтитров: softsub (SRT)--

MediaInfo
x264
VIDEO ENCODING
------------------------------
Encoding video to: J:\Temp\0110.264
x264 Q17.2 1104x460 23.976fps (125904 frames)
avs4x26x.exe: -L x264_64.exe --crf 17.2 --preset veryslow --profile high --level 4.1 --ref 14 --aq-mode 3 --aq-strength 0.7 --deblock -3:-2 --merange 32 --bframes 14 --direct spatial --no-dct-decimate --subme 11 --no-mbtree --keyint 240 --colorprim bt709 --transfer bt709 --colormatrix bt709 --vbv-bufsize 62500 --vbv-maxrate 50000 --partitions p8x8,b8x8,i4x4,i8x8 --sar 1:1 --output "J:\Temp\0110.264" "J:\Temp\0110.avs"
raw [info]: 1104x460p 1:1 @ 24000/1001 fps (cfr)
x264 [info]: using SAR=1/1
x264 [info]: using cpu capabilities: MMX2 SSE2Fast LZCNT
x264 [info]: profile High, level 4.1
x264 [info]: frame I:1302 Avg QP:15.97 size: 73221
x264 [info]: frame P:26874 Avg QP:18.02 size: 28297
x264 [info]: frame B:97728 Avg QP:20.26 size: 8574
x264 [info]: consecutive B-frames: 1.7% 1.7% 6.3% 29.2% 18.7% 31.7% 5.4% 3.4% 0.9% 0.3% 0.2% 0.2% 0.1% 0.0% 0.1%
x264 [info]: mb I I16..4: 4.7% 77.3% 18.0%
x264 [info]: mb P I16..4: 0.4% 9.8% 1.2% P16..4: 30.4% 37.9% 14.5% 0.0% 0.0% skip: 5.8%
x264 [info]: mb B I16..4: 0.0% 0.7% 0.1% B16..8: 36.6% 22.1% 3.9% direct: 4.6% skip:31.9% L0:41.2% L1:45.7% BI:13.1%
x264 [info]: 8x8 transform intra:83.5% inter:61.0%
x264 [info]: coded y,uvDC,uvAC intra: 94.3% 91.0% 78.1% inter: 26.9% 20.5% 10.0%
x264 [info]: i16 v,h,dc,p: 27% 15% 6% 52%
x264 [info]: i8 v,h,dc,ddl,ddr,vr,hd,vl,hu: 10% 7% 5% 10% 14% 15% 13% 13% 12%
x264 [info]: i4 v,h,dc,ddl,ddr,vr,hd,vl,hu: 11% 8% 3% 9% 16% 16% 14% 12% 12%
x264 [info]: i8c dc,h,v,p: 42% 20% 19% 18%
x264 [info]: Weighted P-Frames: Y:4.3% UV:2.4%
x264 [info]: ref P L0: 46.0% 11.0% 17.0% 6.1% 5.0% 3.3% 3.4% 1.7% 1.6% 1.2% 1.1% 0.9% 0.9% 0.8% 0.1% 0.0%
x264 [info]: ref B L0: 75.9% 10.6% 4.6% 2.4% 1.6% 1.3% 1.2% 0.7% 0.5% 0.5% 0.4% 0.2% 0.1%
x264 [info]: ref B L1: 93.4% 6.6%
x264 [info]: kb/s:2580.25
Полное имя : J:\Раздачи\Hot_Pursuit_2015_BDRip_RGTru[cw].mkv
Формат : Matroska
Версия формата : Version 2
Размер файла : 2,13 Гбайт
Продолжительность : 1 ч. 27 м.
Общий поток : 3479 Кбит/сек
Название фильма : Красотки в бегах / Hot Pursuit (2015) [RGTru]
Дата кодирования : UTC 2015-09-11 07:40:30
Программа кодирования : mkvmerge v7.8.0 ('River Man') 32bit built on Apr 3 2015 12:11:22
Библиотека кодирования : libebml v1.3.1 + libmatroska v1.4.2
Видео
Идентификатор : 1
Формат : AVC
Формат/Информация : Advanced Video Codec
Профиль формата : High@L4.1
Параметр CABAC формата : Да
Параметр ReFrames формата : 14 кадров
Идентификатор кодека : V_MPEG4/ISO/AVC
Продолжительность : 1 ч. 27 м.
Битрейт : 2514 Кбит/сек
Ширина : 1104 пикселя
Высота : 460 пикселей
Соотношение сторон : 2,40:1
Режим частоты кадров : Постоянный
Частота кадров : 23,976 кадра/сек
Цветовое пространство : YUV
Субдискретизация насыщенности : 4:2:0
Битовая глубина : 8 бит
Тип развёртки : Прогрессивная
Бит/(Пиксели*Кадры) : 0.206
Размер потока : 1,54 Гбайт (72%)
Заголовок : Hot_Pursuit_2015_BDRip_RGTru[cw]
Библиотека кодирования : x264 core 146 r2538 121396c
Настройки программы : cabac=1 / ref=14 / deblock=1:-3:-2 / analyse=0x3:0x113 / me=umh / subme=11 / psy=1 / psy_rd=1.00:0.00 / mixed_ref=1 / me_range=32 / chroma_me=1 / trellis=2 / 8x8dct=1 / cqm=0 / deadzone=21,11 / fast_pskip=1 / chroma_qp_offset=-2 / threads=4 / lookahead_threads=1 / sliced_threads=0 / nr=0 / decimate=0 / interlaced=0 / bluray_compat=0 / constrained_intra=0 / bframes=14 / b_pyramid=2 / b_adapt=2 / b_bias=0 / direct=1 / weightb=1 / open_gop=0 / weightp=2 / keyint=240 / keyint_min=23 / scenecut=40 / intra_refresh=0 / rc_lookahead=60 / rc=crf / mbtree=0 / crf=17.2 / qcomp=0.60 / qpmin=0 / qpmax=69 / qpstep=4 / vbv_maxrate=50000 / vbv_bufsize=62500 / crf_max=0.0 / nal_hrd=none / filler=0 / ip_ratio=1.40 / pb_ratio=1.30 / aq=3:0.70
Язык : English
Default : Да
Forced : Нет
Цветовой диапазон : Limited
Основные цвета : BT.709
Характеристики трансфера : BT.709
Коэффициенты матрицы : BT.709
Аудио #1
Идентификатор : 2
Формат : AC-3
Формат/Информация : Audio Coding 3
Расширение режима : CM (complete main)
Параметр Endianness формата : Big
Идентификатор кодека : A_AC3
Продолжительность : 1 ч. 27 м.
Вид битрейта : Постоянный
Битрейт : 448 Кбит/сек
Каналы : 6 каналов
Расположение каналов : Front: L C R, Side: L R, LFE
Частота : 48,0 КГц
Битовая глубина : 16 бит
Метод сжатия : С потерями
Размер потока : 280 Мбайт (13%)
Заголовок : Dub
Язык : Russian
Default : Да
Forced : Нет
Аудио #2
Идентификатор : 3
Формат : AC-3
Формат/Информация : Audio Coding 3
Расширение режима : CM (complete main)
Параметр Endianness формата : Big
Идентификатор кодека : A_AC3
Продолжительность : 1 ч. 27 м.
Вид битрейта : Постоянный
Битрейт : 448 Кбит/сек
Каналы : 6 каналов
Расположение каналов : Front: L C R, Side: L R, LFE
Частота : 48,0 КГц
Битовая глубина : 16 бит
Метод сжатия : С потерями
Размер потока : 280 Мбайт (13%)
Заголовок : Original
Язык : English
Default : Нет
Forced : Нет
Текст #1
Идентификатор : 4
Формат : UTF-8
Идентификатор кодека : S_TEXT/UTF8
Идентификатор кодека/Информация : UTF-8 Plain Text
Заголовок : forced
Язык : Russian
Default : Да
Forced : Нет
Текст #2
Идентификатор : 5
Формат : UTF-8
Идентификатор кодека : S_TEXT/UTF8
Идентификатор кодека/Информация : UTF-8 Plain Text
Язык : Russian
Default : Нет
Forced : Нет
Текст #3
Идентификатор : 6
Формат : UTF-8
Идентификатор кодека : S_TEXT/UTF8
Идентификатор кодека/Информация : UTF-8 Plain Text
Язык : English
Default : Нет
Forced : Нет
Текст #4
Идентификатор : 7
Формат : UTF-8
Идентификатор кодека : S_TEXT/UTF8
Идентификатор кодека/Информация : UTF-8 Plain Text
Заголовок : SDH
Язык : English
Default : Нет
Forced : Нет
Текст #5
Идентификатор : 8
Формат : UTF-8
Идентификатор кодека : S_TEXT/UTF8
Идентификатор кодека/Информация : UTF-8 Plain Text
Заголовок : forced
Язык : Ukrainian
Default : Нет
Forced : Нет
Текст #6
Идентификатор : 9
Формат : UTF-8
Идентификатор кодека : S_TEXT/UTF8
Идентификатор кодека/Информация : UTF-8 Plain Text
Язык : Ukrainian
Default : Нет
Forced : Нет
Меню
00:00:00.000 : en:Chapter 1
00:07:33.411 : en:Chapter 2
00:12:00.302 : en:Chapter 3
00:12:59.445 : en:Chapter 4
00:15:55.370 : en:Chapter 5
00:20:56.922 : en:Chapter 6
00:23:15.434 : en:Chapter 7
00:25:52.675 : en:Chapter 8
00:29:59.255 : en:Chapter 9
00:38:14.041 : en:Chapter 10
00:46:43.842 : en:Chapter 11
00:49:46.315 : en:Chapter 12
00:53:19.528 : en:Chapter 13
00:55:10.222 : en:Chapter 14
00:58:07.858 : en:Chapter 15
01:08:42.326 : en:Chapter 16
01:12:22.337 : en:Chapter 17
01:15:45.707 : en:Chapter 18
01:19:10.162 : en:Chapter 19
01:22:46.836 : en:Chapter 20
01:25:09.686 : en:Chapter 21
Скриншоты
Сравнение с исходником
Рип-- БД
Скачать

Скачать торрент!

Как скачивать? · Что такое торрент? · Рейтинг и ограничения

Сайт не распространяет и не хранит электронные версии произведений, а лишь предоставляет доступ к создаваемому пользователями каталогу ссылок на торрент-файлы, которые содержат только списки хеш-сумм

[Профиль] [ЛС]
Показать сообщения:    
Ответить на тему

Текущее время: Сегодня 15:35

Часовой пояс: GMT + 4



Вы не можете начинать темы
Вы не можете отвечать на сообщения
Вы не можете редактировать свои сообщения
Вы не можете удалять свои сообщения
Вы не можете голосовать в опросах
Вы не можете прикреплять файлы к сообщениям
Вы не можете скачивать файлы