В первый раз / Я поцеловал девушку / Toute premiere fois / I kissed a girl (Максим Говаре, Ноеми Саглио / Maxime Govare, Noémie Saglio) [2015, Франция, комедия, HDRip] DVO

Ответить на тему
 
Автор Сообщение

user ®

Стаж: 7 лет 7 месяцев

Сообщений: 20008

Пост Пост: #1 от 13-Сен-2015 20:15

[Цитировать]

В первый раз / Я поцеловал девушку / Toute premiere fois / I kissed a girl
Страна: Франция
Жанр: комедия
Год выпуска: 2015
Продолжительность: 01:31:29
Перевод: Любительский (двухголосый закадровый)
Cубтитры: вшитые форсированные (надписи, песни)!
Оригинальная аудиодорожка: нет
Режиссер: Максим Говаре, Ноеми Саглио / Maxime Govare, Noémie Saglio
В ролях: Пио Мармай, Франк Гастамбид, Adrianna Gradziel, Ланник Готри, Камилль Коттин, Фредерик Пьеро, Изабель Канделье, Николь Феррони, Etienne Guiraud, Себастьен Кастро
Описание: Жереми просыпается в постели с очаровательной блондинкой. Казалось бы, невозможная для него ситуация - ведь он гей и собирается замуж за своего давнего бойфренда. Но Адна не выходит у него из головы и вскоре Жереми понимает, что по уши влюбился в девушку. Теперь ему придётся бросить Антуана и признаваться родным и друзьям в нормальной ориентации, что в современном толерантном обществе будет воспринято неоднозначно.
Но настоящая любовь преодолеет всё.

Доп. информация:
Озвучка: NeigeMort & Daniel
Перевод: Antoine
Работа со звуком: Bif Tennet
По заказу: dmvolkov
Сэмпл: http://multi-up.com/1066026
Качество видео: HDRip
Формат видео: AVI
Видео: Xvid 720x304 24fps 1934kbps
Аудио: MP3 48000Hz stereo 192kbps
Саундтрек
[url=http://***/forum/viewtopic.php?t=5075597]http://***/forum/viewtopic.php?t=5075597[/url]
MediaInfo
General
Complete name : D:\TORRENTS\Toute.premiere.fois.2015.DVO.avi
Format : AVI
Format/Info : Audio Video Interleave
File size : 1.36 GiB
Duration : 1h 31mn
Overall bit rate : 2 136 Kbps
Video
ID : 0
Format : MPEG-4 Visual
Format profile : Simple@L3
Format settings, BVOP : No
Format settings, QPel : No
Format settings, GMC : No warppoints
Format settings, Matrix : Default (H.263)
Codec ID : XVID
Codec ID/Hint : XviD
Duration : 1h 31mn
Bit rate : 1 935 Kbps
Width : 720 pixels
Height : 304 pixels
Display aspect ratio : 2.35:1
Frame rate : 24.000 fps
Color space : YUV
Chroma subsampling : 4:2:0
Bit depth : 8 bits
Scan type : Progressive
Compression mode : Lossy
Bits/(Pixel*Frame) : 0.368
Stream size : 1.24 GiB (91%)
Writing library : XviD 64
Audio
ID : 1
Format : MPEG Audio
Format version : Version 1
Format profile : Layer 3
Mode : Joint stereo
Codec ID : 55
Codec ID/Hint : MP3
Duration : 1h 31mn
Source duration : 1h 31mn
Bit rate mode : Constant
Bit rate : 192 Kbps
Channel(s) : 2 channels
Sampling rate : 48.0 KHz
Compression mode : Lossy
Stream size : 126 MiB (9%)
Alignment : Aligned on interleaves
Interleave, duration : 42 ms (1.00 video frame)
Writing library : LAME3.99r
Encoding settings : -m j -V 4 -q 3 -lowpass 18.6 -b 192
Скриншот c названием фильма Скриншоты
Скачать

Скачать торрент!

Как скачивать? · Что такое торрент? · Рейтинг и ограничения

Сайт не распространяет и не хранит электронные версии произведений, а лишь предоставляет доступ к создаваемому пользователями каталогу ссылок на торрент-файлы, которые содержат только списки хеш-сумм

[Профиль] [ЛС]
Показать сообщения:    
Ответить на тему

Текущее время: Сегодня 23:41

Часовой пояс: GMT + 4



Вы не можете начинать темы
Вы не можете отвечать на сообщения
Вы не можете редактировать свои сообщения
Вы не можете удалять свои сообщения
Вы не можете голосовать в опросах
Вы не можете прикреплять файлы к сообщениям
Вы не можете скачивать файлы