Как убить свою жену / How to Murder Your Wife (Риккардо Пеллиццери / Riccardo Pellizzeri) [2015, Новая Зеландия, Черная комедия, HDTVRip-AVC] Sub Rus + Original Eng

Ответить на тему
 
Автор Сообщение

user ®

Стаж: 7 лет 7 месяцев

Сообщений: 20008

Пост Пост: #1 от 13-Сен-2015 20:15

[Цитировать]

Как убить свою жену / How to Murder Your Wife
Страна: Новая Зеландия
Жанр: Черная комедия
Год выпуска: 2015
Продолжительность: 01:29:50
Перевод: Субтитры Ron.Studio™, Иоганн
Cубтитры: русские
Оригинальная аудиодорожка: английская
Режиссер: Риккардо Пеллиццери / Riccardo Pellizzeri
В ролях: Джеральдин Брофи, Ами Браун, Люси Эдвардс, Джеми Хью, Уильям Кирчер, Тодд Ласанс, Марк Митчинсон, Саймон О’Коннор, Холли Шэнэхэн, Кристофер Уинчестер
Описание: Черная комедия, основанная на реальных событиях 1977 года, о подготовке к убийству своей жены главным героем повествования, рассказанная от первого лица.
Доп. информация: Присутствуют сцены насилия. 18+
Сэмпл: http://multi-up.com/1066040
Качество видео: HDTVRip-AVC
Формат видео: MKV
Видео: H.264, 720х404 (16:9), 25 fps, 1100kbps, 0.128 bit/pixel
Аудио: MP3, 48 kHz, 2 ch, 160 kbps
MediaInfo
General
Unique ID : 195139368346821578264956324505849702436 (0x92CE79AC221EC5C3A80D6ED8668C2824)
Complete name : C:\Как убить свою жену.2015.mkv
Format : Matroska
Format version : Version 2
File size : 704 MiB
Duration : 1h 29mn
Overall bit rate : 1 096 Kbps
Encoded date : UTC 2015-09-11 17:20:16
Writing application : mkvmerge v5.2.1 ('A Far Off Place') built on Jan 2 2012 23:21:10
Writing library : libebml v1.2.3 + libmatroska v1.3.0
Video
ID : 1
Format : AVC
Format/Info : Advanced Video Codec
Format profile : High@L3.1
Format settings, CABAC : Yes
Format settings, ReFrames : 5 frames
Codec ID : V_MPEG4/ISO/AVC
Duration : 1h 29mn
Bit rate : 914 Kbps
Width : 720 pixels
Height : 404 pixels
Display aspect ratio : 16:9
Frame rate mode : Constant
Frame rate : 25.000 fps
Color space : YUV
Chroma subsampling : 4:2:0
Bit depth : 8 bits
Scan type : Progressive
Bits/(Pixel*Frame) : 0.126
Stream size : 587 MiB (83%)
Writing library : x264 core 148 r2579 73ae2d1
Encoding settings : cabac=1 / ref=5 / deblock=1:1:1 / analyse=0x3:0x133 / me=umh / subme=8 / psy=1 / psy_rd=1.00:0.00 / mixed_ref=1 / me_range=16 / chroma_me=1 / trellis=1 / 8x8dct=1 / cqm=0 / deadzone=21,11 / fast_pskip=1 / chroma_qp_offset=-2 / threads=18 / lookahead_threads=3 / sliced_threads=0 / nr=0 / decimate=1 / interlaced=0 / bluray_compat=0 / constrained_intra=0 / bframes=3 / b_pyramid=2 / b_adapt=2 / b_bias=0 / direct=3 / weightb=1 / open_gop=0 / weightp=2 / keyint=250 / keyint_min=25 / scenecut=40 / intra_refresh=0 / rc_lookahead=50 / rc=crf / mbtree=1 / crf=19.0 / qcomp=0.60 / qpmin=0 / qpmax=69 / qpstep=4 / ip_ratio=1.40 / aq=1:1.00
Default : Yes
Forced : No
Matrix coefficients : BT.709
Audio
ID : 2
Format : MPEG Audio
Format version : Version 1
Format profile : Layer 3
Mode : Joint stereo
Codec ID : A_MPEG/L3
Codec ID/Hint : MP3
Duration : 1h 29mn
Bit rate mode : Constant
Bit rate : 160 Kbps
Channel(s) : 2 channels
Sampling rate : 48.0 KHz
Compression mode : Lossy
Stream size : 103 MiB (15%)
Writing library : LAME3.99.5
Default : Yes
Forced : No
Text
ID : 3
Format : UTF-8
Codec ID : S_TEXT/UTF8
Codec ID/Info : UTF-8 Plain Text
Language : Russian
Default : Yes
Forced : Yes
Скриншот c названием фильма Скриншоты Фрагмент субтитров
1
00:00:31,121 --> 00:00:33,081
Я сейчас расскажу вам одну историю.
2
00:00:33,810 --> 00:00:35,770
Подлинную историю.
3
00:00:37,170 --> 00:00:39,810
Она про меня, я Альф, Альф Беннинг.
4
00:00:42,250 --> 00:00:44,210
Улыбочка!
5
00:00:57,530 --> 00:01:01,090
И все в этой истории -
библейские истины.
6
00:01:02,970 --> 00:01:05,210
Эта история про убийство, да,
7
00:01:06,290 --> 00:01:08,650
но также эта история про любовь.
8
00:01:11,610 --> 00:01:13,570
Думаете, это страшилка?
9
00:01:15,490 --> 00:01:17,410
Возможно.
10
00:01:17,490 --> 00:01:20,210
Просто до сих пор она никем не записана.
11
00:01:21,530 --> 00:01:25,170
Почему именно сейчас?
Думаете, я хочу быть знаменитым?
12
00:01:25,330 --> 00:01:27,090
Нет!
13
00:01:27,210 --> 00:01:28,890
Или известным.
14
00:01:29,010 --> 00:01:30,970
Нет!
15
00:01:33,570 --> 00:01:35,930
Я просто хочу, чтобы меня поняли.
16
00:01:39,850 --> 00:01:42,410
И в любом случае, это классная история!
17
00:01:48,183 --> 00:01:51,739
КАК УБИТЬ СВОЮ ЖЕНУ
18
00:01:51,810 --> 00:01:52,951
Автор Альф Беннинг.
19
00:02:31,250 --> 00:02:33,210
Бетти?
20
00:02:33,490 --> 00:02:35,210
Что ты делаешь, любимая?
21
00:02:39,770 --> 00:02:42,610
Ты переезжаешь в кладовку.
22
00:02:43,170 --> 00:02:49,170
Минуточку! Мы же муж и жена.
А как же "любить и почитать"?
23
00:02:50,130 --> 00:02:55,770
Почитать? Разве я когда-то почитала
тебя, Альф? Смешно сказать...
24
00:03:01,810 --> 00:03:06,530
O, все абсолютно ясно!
Такие мужья как ты, нужны на один раз,
25
00:03:06,650 --> 00:03:10,610
но теперь ты так же бесполезен,
как трое последних.
26
00:03:12,010 --> 00:03:13,970
Трое последних?
27
00:03:15,210 --> 00:03:17,170
Что за трое последних?
28
00:03:20,090 --> 00:03:22,050
Глава первая.
29
00:03:26,450 --> 00:03:28,410
Мотив.
31
00:03:35,850 --> 00:03:40,050
Нет... только так!
32
00:03:40,130 --> 00:03:42,050
Это все решит!
33
00:03:43,050 --> 00:03:43,730
Да!
35
00:03:51,730 --> 00:03:53,690
Альф, заткнись и копай.
36
00:03:56,090 --> 00:03:58,050
Трое мужей...
37
00:03:58,450 --> 00:04:00,410
как же так?
38
00:04:01,050 --> 00:04:04,450
Все эти годы!
Скачать

Скачать торрент!

Как скачивать? · Что такое торрент? · Рейтинг и ограничения

Сайт не распространяет и не хранит электронные версии произведений, а лишь предоставляет доступ к создаваемому пользователями каталогу ссылок на торрент-файлы, которые содержат только списки хеш-сумм

[Профиль] [ЛС]
Показать сообщения:    
Ответить на тему

Текущее время: Сегодня 05:52

Часовой пояс: GMT + 4



Вы не можете начинать темы
Вы не можете отвечать на сообщения
Вы не можете редактировать свои сообщения
Вы не можете удалять свои сообщения
Вы не можете голосовать в опросах
Вы не можете прикреплять файлы к сообщениям
Вы не можете скачивать файлы