Гриль-бар "Порох" / The Spitfire Grill (Ли Дэвид Злотофф / Lee David Zlotoff) [1996, США, драма, WEB-DL 720p] AVO (П. Карцев) + Sub Eng + Original Eng

Ответить на тему
 
Автор Сообщение

user ®

Стаж: 7 лет 7 месяцев

Сообщений: 20008

Пост Пост: #1 от 13-Сен-2015 01:42

[Цитировать]

Гриль-бар "Порох" / The Spitfire Grill
Страна: США
Студия: Castle Rock Entertainment, Gregory Productions, The Mendocino Corporation
Жанр: драма
Год выпуска: 1996
Продолжительность: 01:56:41
Перевод: Авторский (одноголосый закадровый) Петр Карцев
Cубтитры: английские
Оригинальная аудиодорожка: английский
Режиссер: Ли Дэвид Злотофф / Lee David Zlotoff
В ролях: Элисон Эллиотт, Эллен Бёрстин, Марша Гэй Харден, Уилл Пэттон, Киран Малруни, Гейлард Сартейн, Луиз Де Кормье, Ida Griesemer, Линкольн Гроу, Эмерсон Гроу…
Описание: Освободившись из тюрьмы, Перси Тэлбот выбирает небольшой и отдаленный городок, где устраивается на работу в бар под названием «Порох». Она встречает доброжелательное отношение местных жителей. Но находится человек, который не верит в ее исправление, и ему предоставляется случай доказать это. В результате — трагедия и запоздалое раскаяние.
II Сэмпл II IMDB II
Тип релиза: WEB-DL 720p
Контейнер: MKV
Видео: AVC / 1280x716 / 16:9 / 23.976fps / Bit rate 4133Kbps
Аудио 1: AC3 / 48.0 KHz / 2ch. / 192kbps / rus / avo / Петр Карцев
Аудио 2: AC3 / 48.0 KHz / 2ch. / 192kbps / eng
Формат субтитров: softsub (SRT)
MediaInfo
Общее
Уникальный идентификатор : 203948521811237814955176853108818083390 (0x996F0E788D50389793F2D7B7C0527E3E)
Полное имя : H:\!_Torrent\The.Spitfire.Grill.1996.WEB-DL.720p_by_vedigo.mkv
Формат : Matroska
Версия формата : Version 4 / Version 2
Размер файла : 3,76 Гбайт
Продолжительность : 1 ч. 56 м.
Общий поток : 4609 Кбит/сек
Название фильма : The.Spitfire.Grill.1996.WEB-DL.720p_by_vedigo
Дата кодирования : UTC 2015-09-11 13:00:51
Программа кодирования : mkvmerge v8.3.0 ('Over the Horizon') 64bit
Библиотека кодирования : libebml v1.3.1 + libmatroska v1.4.2
DURATION : 01:56:47.968000000
NUMBER_OF_FRAMES : 218999
NUMBER_OF_BYTES : 168191232
_STATISTICS_WRITING_APP : mkvmerge v8.3.0 ('Over the Horizon') 64bit
_STATISTICS_WRITING_DATE_UTC : 2015-09-11 13:00:51
_STATISTICS_TAGS : BPS DURATION NUMBER_OF_FRAMES NUMBER_OF_BYTES
Видео
Идентификатор : 1
Формат : AVC
Формат/Информация : Advanced Video Codec
Профиль формата : High@L3.1
Параметр CABAC формата : Нет
Параметр ReFrames формата : 2 кадра
Параметр GOP формата : N=1
Идентификатор кодека : V_MPEG4/ISO/AVC
Продолжительность : 1 ч. 56 м.
Битрейт : 4134 Кбит/сек
Ширина : 1280 пикселей
Высота : 716 пикселей
Соотношение сторон : 16:9
Режим частоты кадров : Постоянный
Частота кадров : 23,976 кадра/сек
Цветовое пространство : YUV
Субдискретизация насыщенности : 4:2:0
Битовая глубина : 8 бит
Тип развёртки : Прогрессивная
Бит/(Пиксели*Кадры) : 0.188
Размер потока : 3,37 Гбайт (90%)
Заголовок : The.Spitfire.Grill.1996.WEB-DL.720p_by_vedigo
Default : Да
Forced : Нет
Цветовой диапазон : Limited
Основные цвета : BT.709
Характеристики трансфера : BT.709
Коэффициенты матрицы : BT.709
Аудио #1
Идентификатор : 2
Формат : AC-3
Формат/Информация : Audio Coding 3
Расширение режима : CM (complete main)
Параметр Endianness формата : Big
Идентификатор кодека : A_AC3
Продолжительность : 1 ч. 56 м.
Вид битрейта : Постоянный
Битрейт : 192 Кбит/сек
Каналы : 2 канала
Расположение каналов : Front: L R
Частота : 48,0 КГц
Метод сжатия : С потерями
Размер потока : 160 Мбайт (4%)
Заголовок : AVO @ П. Карцев
Язык : Russian
Default : Да
Forced : Нет
Аудио #2
Идентификатор : 3
Формат : AC-3
Формат/Информация : Audio Coding 3
Расширение режима : CM (complete main)
Параметр Endianness формата : Big
Идентификатор кодека : A_AC3
Продолжительность : 1 ч. 56 м.
Вид битрейта : Постоянный
Битрейт : 192 Кбит/сек
Каналы : 2 канала
Расположение каналов : Front: L R
Частота : 48,0 КГц
Метод сжатия : С потерями
Размер потока : 160 Мбайт (4%)
Заголовок : original eng
Язык : English
Default : Нет
Forced : Нет
Текст
Идентификатор : 4
Формат : UTF-8
Идентификатор кодека : S_TEXT/UTF8
Идентификатор кодека/Информация : UTF-8 Plain Text
Заголовок : subtitle eng
Язык : English
Default : Нет
Forced : Нет
Меню
00:00:00.000 : en:Chapter 1
00:04:36.000 : en:Chapter 2
00:06:59.000 : en:Chapter 3
00:09:19.000 : en:Chapter 4
00:12:56.000 : en:Chapter 5
00:16:02.000 : en:Chapter 6
00:20:25.000 : en:Chapter 7
00:23:52.000 : en:Chapter 8
00:29:52.000 : en:Chapter 9
00:33:44.000 : en:Chapter 10
00:36:44.000 : en:Chapter 11
00:48:14.000 : en:Chapter 12
00:50:27.000 : en:Chapter 13
00:53:01.000 : en:Chapter 14
00:55:55.000 : en:Chapter 15
00:58:24.000 : en:Chapter 16
00:59:57.000 : en:Chapter 17
01:03:04.000 : en:Chapter 18
01:08:21.000 : en:Chapter 19
01:10:03.000 : en:Chapter 20
01:12:06.000 : en:Chapter 21
01:14:25.000 : en:Chapter 22
01:18:03.000 : en:Chapter 23
01:23:50.000 : en:Chapter 24
01:25:38.000 : en:Chapter 25
01:31:03.000 : en:Chapter 26
01:35:14.000 : en:Chapter 27
01:39:38.000 : en:Chapter 28
01:41:37.000 : en:Chapter 29
01:42:32.000 : en:Chapter 30
01:45:41.000 : en:Chapter 31
01:47:36.000 : en:Chapter 32
01:49:49.000 : en:Chapter 33
01:52:22.000 : en:Chapter 34
Скриншоты
Скачать

Скачать торрент!

Как скачивать? · Что такое торрент? · Рейтинг и ограничения

Сайт не распространяет и не хранит электронные версии произведений, а лишь предоставляет доступ к создаваемому пользователями каталогу ссылок на торрент-файлы, которые содержат только списки хеш-сумм

[Профиль] [ЛС]
Показать сообщения:    
Ответить на тему

Текущее время: Сегодня 00:42

Часовой пояс: GMT + 4



Вы не можете начинать темы
Вы не можете отвечать на сообщения
Вы не можете редактировать свои сообщения
Вы не можете удалять свои сообщения
Вы не можете голосовать в опросах
Вы не можете прикреплять файлы к сообщениям
Вы не можете скачивать файлы