Трущобы Беверли Хиллз / Slums of Beverly Hills (Тамара Дженкинс / Tamara Jenkins) [1998, США, драма, комедия, BDRip 720p] DVO (Лазер Видео) + Original + Sub (Eng)

Ответить на тему
 
Автор Сообщение

user ®

Стаж: 7 лет 7 месяцев

Сообщений: 20008

Пост Пост: #1 от 13-Сен-2015 01:42

[Цитировать]

Трущобы Беверли Хиллз / Slums of Beverly Hills -Год выпуска: 1998
Страна: США
Студия: Fox Searchlight Pictures, Twentieth Century Fox
Жанр: драма, комедия
Продолжительность: 01:31:06
Перевод: Профессиональный (двухголосый закадровый) Лазер Видео |VHS|
Субтитры: английские
Оригинальная аудиодорожка: английский
-Режиссер: Тамара Дженкинс / Tamara Jenkins-В ролях: Наташа Лионн, Алан Аркин, Брина Уайсс, Мариса Томей, Шарлотта Стюарт, Эли Мариентал, Дэвид Крамхолц, Кевин Корригэн, Брендан Барнс, Харрис Ласкэвей, Джессика Уолтер и другие.-Роли озвучивали (Лазер Видео): Ирина Савина, Игорь Тарадайкин.-Описание: По дороге во взрослую жизнь Вивьен мучает несовместимость двух факторов в ее жизни. С одной стороны, страшная подавленность, связанная с постоянными переездами ее семьи, и полное отчаяние, когда шанс поселиться в школьном районе Беверли-Хиллз улетучился, как дым, с другой — ее сексуальный расцвет. Ко всему этому добавляется появление жизнерадостной кузины, явившейся к Вивьен, чтобы помочь ей выпустить свою сексуальную энергию. Результат доказал, что для того, чтобы хорошо повеселиться, необязательно быть богатым.-Доп. информация
Данная аудиодорожка была обработана при помощи программы iZotope. Это намного лучше, чем Adobe Audition, которой пользовались владельцы первых двух релизов.
-РЕЛИЗ ОТ: V.SERIJ2013-Спасибо Fikaloid за оцифровку VHS-издания Лазер Видео и v.serij2013 (т.е., мне) за обработку и сведение.-Качество: BDRip 720p |AMIABLE|
Формат: MKV
Видео кодек: H.264
Аудио кодек: AC3
Видео: H.264, 1280x696 (1.85:1), 23.976 fps, ~6228 kbps, 0.292 bit/pixel
Аудио:
  • русская |Лазер Видео|: AC3, 48 kHz, 2 ch, 192 kbps
  • английская |Оригинал|: AC3, 48 kHz, 2 ch, 640 kbps
Формат субтитров: softsub (SRT)-Сэмпл \ Кинопоиск-Скриншоты Media Info
General
Unique ID                      : 170548235999500818434788129404108690984 (0x804E653D59C169C0A25494341FB85628)
Complete name                  : E:\Video\HD\Movies (HD)\Slums of Beverly Hills (BDRip 720p).mkv
Format                         : Matroska
Format version                 : Version 4 / Version 2
File size                      : 4.49 GiB
Duration                       : 1h 31mn
Overall bit rate               : 7 060 Kbps
Movie name                     : Slums of Beverly Hills (BDRip | 720p | v.serij2013)
Encoded date                   : UTC 2015-09-06 03:13:52
Writing application            : mkvmerge v8.2.0 ('World of Adventure') 32bit
Writing library                : libebml v1.3.1 + libmatroska v1.4.2
DURATION                       : 01:31:06.144000000
NUMBER_OF_FRAMES               : 170817
NUMBER_OF_BYTES                : 131187456
_STATISTICS_WRITING_APP        : mkvmerge v8.2.0 ('World of Adventure') 32bit
_STATISTICS_WRITING_DATE_UTC   : 2015-09-06 03:13:52
_STATISTICS_TAGS               : BPS DURATION NUMBER_OF_FRAMES NUMBER_OF_BYTES
Video
ID                             : 1
Format                         : AVC
Format/Info                    : Advanced Video Codec
Format profile                 : High@L4.1
Format settings, CABAC         : Yes
Format settings, ReFrames      : 5 frames
Codec ID                       : V_MPEG4/ISO/AVC
Duration                       : 1h 31mn
Bit rate                       : 6 228 Kbps
Width                          : 1 280 pixels
Height                         : 696 pixels
Display aspect ratio           : 1.85:1
Frame rate mode                : Constant
Frame rate                     : 23.976 fps
Color space                    : YUV
Chroma subsampling             : 4:2:0
Bit depth                      : 8 bits
Scan type                      : Progressive
Bits/(Pixel*Frame)             : 0.292
Stream size                    : 3.87 GiB (86%)
Writing library                : x264 core 140 r2377 1ca7bb9
Encoding settings              : cabac=1 / ref=5 / deblock=1:-3:-3 / analyse=0x3:0x113 / me=umh / subme=8 / psy=1 / psy_rd=1.00:0.00 / mixed_ref=1 / me_range=16 / chroma_me=1 / trellis=1 / 8x8dct=1 / cqm=0 / deadzone=21,11 / fast_pskip=1 / chroma_qp_offset=-2 / threads=18 / lookahead_threads=3 / sliced_threads=0 / nr=0 / decimate=1 / interlaced=0 / bluray_compat=0 / constrained_intra=0 / bframes=3 / b_pyramid=2 / b_adapt=2 / b_bias=0 / direct=3 / weightb=1 / open_gop=0 / weightp=2 / keyint=240 / keyint_min=24 / scenecut=40 / intra_refresh=0 / rc_lookahead=50 / rc=2pass / mbtree=1 / bitrate=6228 / ratetol=1.0 / qcomp=0.60 / qpmin=0 / qpmax=69 / qpstep=4 / cplxblur=20.0 / qblur=0.5 / ip_ratio=1.40 / aq=1:1.00
Language                       : English
Default                        : Yes
Forced                         : No
DURATION                       : 01:31:06.086000000
NUMBER_OF_FRAMES               : 131055
NUMBER_OF_BYTES                : 4252734412
_STATISTICS_WRITING_APP        : mkvmerge v8.2.0 ('World of Adventure') 32bit
_STATISTICS_WRITING_DATE_UTC   : 2015-09-06 03:13:52
_STATISTICS_TAGS               : BPS DURATION NUMBER_OF_FRAMES NUMBER_OF_BYTES
Audio #1
ID                             : 2
Format                         : AC-3
Format/Info                    : Audio Coding 3
Mode extension                 : CM (complete main)
Format settings, Endianness    : Big
Codec ID                       : A_AC3
Duration                       : 1h 31mn
Bit rate mode                  : Constant
Bit rate                       : 192 Kbps
Channel(s)                     : 2 channels
Channel positions              : Front: L R
Sampling rate                  : 48.0 KHz
Bit depth                      : 16 bits
Compression mode               : Lossy
Stream size                    : 125 MiB (3%)
Title                          : DVO (Лазер Видео)
Language                       : Russian
Default                        : Yes
Forced                         : No
Audio #2
ID                             : 3
Format                         : AC-3
Format/Info                    : Audio Coding 3
Mode extension                 : CM (complete main)
Format settings, Endianness    : Big
Codec ID                       : A_AC3
Duration                       : 1h 31mn
Bit rate mode                  : Constant
Bit rate                       : 640 Kbps
Channel(s)                     : 2 channels
Channel positions              : Front: L R
Sampling rate                  : 48.0 KHz
Bit depth                      : 16 bits
Compression mode               : Lossy
Stream size                    : 417 MiB (9%)
Title                          : Original
Language                       : English
Default                        : No
Forced                         : No
Text
ID                             : 4
Format                         : UTF-8
Codec ID                       : S_TEXT/UTF8
Codec ID/Info                  : UTF-8 Plain Text
Title                          : Original
Language                       : English
Default                        : No
Forced                         : No
Menu
00:00:00.000                   : en:00:00:00.000
00:06:27.387                   : en:00:06:27.387
00:12:32.752                   : en:00:12:32.752
00:22:04.323                   : en:00:22:04.323
00:28:37.716                   : en:00:28:37.716
00:34:04.042                   : en:00:34:04.042
00:43:07.585                   : en:00:43:07.585
00:49:23.961                   : en:00:49:23.961
00:54:33.270                   : en:00:54:33.270
01:02:29.746                   : en:01:02:29.746
01:11:02.258                   : en:01:11:02.258
01:22:01.917                   : en:01:22:01.917
-
Скачать

Скачать торрент!

Как скачивать? · Что такое торрент? · Рейтинг и ограничения

Сайт не распространяет и не хранит электронные версии произведений, а лишь предоставляет доступ к создаваемому пользователями каталогу ссылок на торрент-файлы, которые содержат только списки хеш-сумм

[Профиль] [ЛС]
Показать сообщения:    
Ответить на тему

Текущее время: Сегодня 17:40

Часовой пояс: GMT + 4



Вы не можете начинать темы
Вы не можете отвечать на сообщения
Вы не можете редактировать свои сообщения
Вы не можете удалять свои сообщения
Вы не можете голосовать в опросах
Вы не можете прикреплять файлы к сообщениям
Вы не можете скачивать файлы