Кровавые игры / Blood Games (Таня Розенберг / Tanya Rosenberg) [1990, США, боевик, триллер, HDTV 1080i] DVO + AVO (Марченко) + Original Eng

Ответить на тему
 
Автор Сообщение

user ®

Стаж: 7 лет 7 месяцев

Сообщений: 20008

Пост Пост: #1 от 12-Сен-2015 19:30

[Цитировать]

Кровавые игры / Blood Games
Год выпуска: 1990
Страна: США
Жанр: боевик, триллер
Продолжительность: 01:26:41
Перевод1: Профессиональный (двухголосый, закадровый)
Перевод2: Авторский (одногоголосый, закадровый) (А.Марченко)
Субтитры: отсутствуют
Оригинальная аудиодорожка: Английский
Режиссер: Таня Розенберг / Tanya Rosenberg
В ролях: Грегори Скотт Камминс, Лора Альберт, Shelley Abblett, Кен Карпентер, Росс Хэйген, Дон До, Rhyve Sawyer, Джули Холл, Паула Манга, Сабрина Хиллс
Описание: Победив провинциальную мужскую команду на матче в небольшом городке, участницы женской бейсбольной команды становятся жертвами преследования жителей этого городка. Теперь им не остается ничего, кроме как молиться за свою жизнь, потому что на них начинают охотится в буквальном смысле слова.

Качество: HDTV 1080i
Формат: mkv
Видео кодек: H.264
Аудио кодек: AC3
Видео: 1920 x 1080; 25.00 fps; 6364 Kbps
Аудио1: Русский, AC3 2.0, 192 Kbps, 48,0 КГц (DVO)
Аудио2: Русский, AC3 2.0, 192 Kbps, 48,0 КГц (Marchenko)
Аудио3: English, AC3 2.0, 192 Kbps, 48,0 КГц
MediaInfo
Общее
Уникальный идентификатор : 252375077188343804298078763822683531967 (0xBDDDABFD894BDE93881D7FCFE81C2ABF)
Полное имя : D:\Blood.Games.1990.HDTV.1080i.2xRus.Eng.mkv
Формат : Matroska
Версия формата : Version 4 / Version 2
Размер файла : 4,29 Гбайт
Продолжительность : 1 ч. 26 м.
Общий поток : 7081 Кбит/сек
Название фильма : Blood Games
Дата кодирования : UTC 2015-09-11 19:49:48
Программа кодирования : mkvmerge v7.3.0 ('Nouages') 32bit built on Oct 22 2014 18:44:01
Библиотека кодирования : libebml v1.3.0 + libmatroska v1.4.1
DURATION : 01:26:43.296000000
NUMBER_OF_FRAMES : 162603
NUMBER_OF_BYTES : 124879104
_STATISTICS_WRITING_APP : mkvmerge v7.3.0 ('Nouages') 32bit built on Oct 22 2014 18:44:01
_STATISTICS_WRITING_DATE_UTC : 2015-09-11 19:49:48
_STATISTICS_TAGS : BPS DURATION NUMBER_OF_FRAMES NUMBER_OF_BYTES
Видео
Идентификатор : 1
Формат : AVC
Формат/Информация : Advanced Video Codec
Профиль формата : High@L4
Параметр CABAC формата : Да
Параметр ReFrames формата : 3 кадра
Идентификатор кодека : V_MPEG4/ISO/AVC
Битрейт : 6364 Кбит/сек
Ширина : 1920 пикселей
Высота : 1080 пикселей
Соотношение сторон : 16:9
Режим частоты кадров : Переменный
Частота кадров в оригинале : 25,000 кадров/сек
Стандарт вещания : PAL
Цветовое пространство : YUV
Субдискретизация насыщенности : 4:2:0
Битовая глубина : 8 бит
Тип развёртки : Чересстрочная
Порядок развёртки : Верхнее поле первое
Заголовок : Blood Games 1990 HDTV 1080i
Default : Нет
Forced : Нет
Цветовой диапазон : Limited
Основные цвета : BT.709
Характеристики трансфера : BT.709
Коэффициенты матрицы : BT.709
Аудио #1
Идентификатор : 2
Формат : AC-3
Формат/Информация : Audio Coding 3
Расширение режима : CM (complete main)
Параметр Endianness формата : Big
Идентификатор кодека : A_AC3
Продолжительность : 1 ч. 26 м.
Вид битрейта : Постоянный
Битрейт : 192 Кбит/сек
Каналы : 2 канала
Расположение каналов : Front: L R
Частота : 48,0 КГц
Метод сжатия : С потерями
Размер потока : 119 Мбайт (3%)
Заголовок : DVO AC3 2.0 192 kbps
Язык : Russian
Default : Нет
Forced : Нет
Аудио #2
Идентификатор : 3
Формат : AC-3
Формат/Информация : Audio Coding 3
Расширение режима : CM (complete main)
Параметр Endianness формата : Big
Идентификатор кодека : A_AC3
Продолжительность : 1 ч. 26 м.
Вид битрейта : Постоянный
Битрейт : 192 Кбит/сек
Каналы : 2 канала
Расположение каналов : Front: L R
Частота : 48,0 КГц
Метод сжатия : С потерями
Размер потока : 119 Мбайт (3%)
Заголовок : Marchenko AC3 2.0 192 kbps
Язык : Russian
Default : Нет
Forced : Нет
Аудио #3
Идентификатор : 4
Формат : AC-3
Формат/Информация : Audio Coding 3
Расширение режима : CM (complete main)
Параметр Endianness формата : Big
Идентификатор кодека : A_AC3
Продолжительность : 1 ч. 26 м.
Вид битрейта : Постоянный
Битрейт : 192 Кбит/сек
Каналы : 2 канала
Расположение каналов : Front: L R
Частота : 48,0 КГц
Метод сжатия : С потерями
Размер потока : 119 Мбайт (3%)
Заголовок : Original AC3 2.0 192 kbps
Язык : English
Default : Нет
Forced : Нет
Сэмпл Скриншоты
Скачать

Скачать торрент!

Как скачивать? · Что такое торрент? · Рейтинг и ограничения

Сайт не распространяет и не хранит электронные версии произведений, а лишь предоставляет доступ к создаваемому пользователями каталогу ссылок на торрент-файлы, которые содержат только списки хеш-сумм

[Профиль] [ЛС]
Показать сообщения:    
Ответить на тему

Текущее время: Сегодня 00:04

Часовой пояс: GMT + 4



Вы не можете начинать темы
Вы не можете отвечать на сообщения
Вы не можете редактировать свои сообщения
Вы не можете удалять свои сообщения
Вы не можете голосовать в опросах
Вы не можете прикреплять файлы к сообщениям
Вы не можете скачивать файлы