Сломанная стрела / Broken Arrow (Джон Ву / John Woo) [1996, США, боевик, триллер, приключения, BDRip 1080p] 4x MVO (R5, Киномания, ОРТ, Премьер Видео Фильм) + 3x AVO (Гаврилов, Живов, Визгунов) + VO (Гаевский) + Original Eng + Sub (Rus, Eng)

Ответить на тему
 
Автор Сообщение

user ®

Стаж: 7 лет 7 месяцев

Сообщений: 20008

Пост Пост: #1 от 12-Сен-2015 16:24

[Цитировать]

Сломанная Стрела / Broken Arrow- Год выпуска: 1996
Выпущено: США
Жанр: боевик, триллер, приключения
Продолжительность: 01:48:21
Перевод: Профессиональный (многоголосый, закадровый) R5
+ Профессиональный (многоголосый, закадровый) Киномания
+ Профессиональный (многоголосый, закадровый) ОРТ
+ Профессиональный (многоголосый, закадровый) Премьер Видео Фильм
+ Одноголосый закадровый Е.Гаевский
+ Авторский одноголосый А.Гаврилов
+ Авторский одноголосый Ю.Живов
+ Авторский одноголосый С.Визгунов
Оригинальная звуковая дорожка: English
Субтитры: Russian, English-Режиссер: Джон Ву / John Woo
В ролях: Джон Траволта, Кристиан Слэйтер, Саманта Мэтис, Делрой Линдо, Боб Гантон, Фрэнк Уэйли, Хоуи Лонг, Вонди Куртис-Холл, Джек Томпсон, Вито Руджинис
О фильме: История двух пилотов-асов американских ВВС. Им поручается выполнить секретное задание на самолете-невидимке с двумя ядерными боеголовками на борту. Дикенс, неудачник по жизни, постоянно пропускающий повышения по службе, задумывает похитить боеголовки, с тем чтобы шантажировать правительство США. Но его напарник Хэйл - честный парень и не позволит никому так просто взять и украсть собственность своей родной страны. Между ними разгорается самая настоящая война, в которой могут погибнуть не только они, но и несколько миллионов мирных жителей, живущих в округе, если хотя бы одна ядерная боеголовка взорвется.-SbR!
Релиз:
Формат: MKV
Видео: 1920x812 at 23.976 fps, x264@L4.1, 2pass, ~14200 kbps avg
Аудио #01: Russian: 48 kHz, AC3, 3/2 (L,C,R,l,r) + LFE ch, ~448 kbps avg |Многоголосый закадровый, R5|
Аудио #02: Russian: 48 kHz, AC3, 3/2 (L,C,R,l,r) + LFE ch, ~384 kbps avg |Многоголосый закадровый, Киномания|
Аудио #03: Russian: 48 kHz, AC3, 2/0 (L,R) ch, ~192 kbps avg |Многоголосый закадровый, ОРТ|
Аудио #04: Russian: 48 kHz, AC3, 2/0 (L,R) ch, ~192 kbps avg |Многоголосый закадровый, Премьер Видео Фильм|
Аудио #05: Russian: 48 kHz, DTS, 3/2 (L,C,R,l,r) + LFE ch, ~1509 kbps avg |Одноголосый закадровый, Е. Гаевский|
Аудио #06: Russian: 48 kHz, AC3, 3/2 (L,C,R,l,r) + LFE ch, ~448 kbps avg |Одноголосый закадровый, А. Гаврилов|
Аудио #07: Russian: 48 kHz, AC3, 3/2 (L,C,R,l,r) + LFE ch, ~448 kbps avg |Одноголосый закадровый, Ю. Живов|
Аудио #08: Russian: 48 kHz, AC3, 2/0 (L,R) ch, ~192 kbps avg |Одноголосый закадровый, С. Визгунов|
Аудио #09: English: 48 kHz, DTS, 3/2 (L,C,R,l,r) + LFE ch, ~1509 kbps avg
Семпл-Source vs Encode
-
mInfo
Формат : Matroska
Версия формата : Version 4 / Version 2
Размер файла : 14,8 Гбайт
Продолжительность : 1 ч. 48 м.
Общий поток : 19,5 Мбит/сек
Название фильма : Broken Arrow (1996) - Encode by SbR
Дата кодирования : UTC 2015-09-03 07:18:06
Программа кодирования : mkvmerge v8.3.0 ('Over the Horizon') 64bit
Библиотека кодирования : libebml v1.3.1 + libmatroska v1.4.2
Attachements : cover.jpg / xlog.txt
Видео
Идентификатор : 1
Формат : AVC
Формат/Информация : Advanced Video Codec
Профиль формата : High@L4.1
Параметр CABAC формата : Да
Параметр ReFrames формата : 5 кадров
Идентификатор кодека : V_MPEG4/ISO/AVC
Продолжительность : 1 ч. 48 м.
Битрейт : 14,2 Мбит/сек
Ширина : 1920 пикселей
Высота : 812 пикселей
Соотношение сторон : 2,35:1
Режим частоты кадров : Постоянный
Частота кадров : 23,976 кадра/сек
Цветовое пространство : YUV
Субдискретизация насыщенности : 4:2:0
Битовая глубина : 8 бит
Тип развёртки : Прогрессивная
Бит/(Пиксели*Кадры) : 0.380
Размер потока : 10,4 Гбайт (71%)
Заголовок : Release for HDCLUB
Библиотека кодирования : x264 core 146 r2538kMod 121396c
Настройки программы : cabac=1 / ref=5 / deblock=1:-2:-2 / analyse=0x3:0x133 / me=umh / subme=11 / psy=1 / fade_compensate=0.00 / psy_rd=1.00:0.00 / mixed_ref=1 / me_range=32 / chroma_me=1 / trellis=2 / 8x8dct=1 / cqm=0 / deadzone=21,11 / fast_pskip=0 / chroma_qp_offset=-2 / threads=12 / lookahead_threads=2 / sliced_threads=0 / nr=0 / decimate=1 / interlaced=0 / bluray_compat=0 / constrained_intra=0 / fgo=0 / bframes=8 / b_pyramid=2 / b_adapt=2 / b_bias=0 / direct=3 / weightb=1 / open_gop=0 / weightp=2 / keyint=250 / keyint_min=23 / scenecut=40 / intra_refresh=0 / rc_lookahead=60 / rc=2pass / mbtree=0 / bitrate=14200 / ratetol=1.0 / qcomp=0.70 / qpmin=0 / qpmax=69 / qpstep=4 / cplxblur=20.0 / qblur=0.5 / vbv_maxrate=62500 / vbv_bufsize=78125 / nal_hrd=none / filler=0 / ip_ratio=1.40 / pb_ratio=1.30 / aq=1:0.80
Язык : English
Default : Да
Forced : Нет
Основные цвета : BT.709
Характеристики трансфера : BT.709
Коэффициенты матрицы : BT.709
colour_range : Limited
Аудио #1
Идентификатор : 2
Формат : AC-3
Формат/Информация : Audio Coding 3
Расширение режима : CM (complete main)
Параметр Endianness формата : Big
Идентификатор кодека : A_AC3
Продолжительность : 1 ч. 48 м.
Вид битрейта : Постоянный
Битрейт : 448 Кбит/сек
Каналы : 6 каналов
Расположение каналов : Front: L C R, Side: L R, LFE
Частота : 48,0 КГц
Битовая глубина : 16 бит
Метод сжатия : С потерями
Размер потока : 347 Мбайт (2%)
Заголовок : R5
Язык : Russian
Default : Да
Forced : Нет
Аудио #2
Идентификатор : 3
Формат : AC-3
Формат/Информация : Audio Coding 3
Расширение режима : CM (complete main)
Параметр Endianness формата : Big
Идентификатор кодека : A_AC3
Продолжительность : 1 ч. 48 м.
Вид битрейта : Постоянный
Битрейт : 384 Кбит/сек
Каналы : 6 каналов
Расположение каналов : Front: L C R, Side: L R, LFE
Частота : 48,0 КГц
Битовая глубина : 16 бит
Метод сжатия : С потерями
Размер потока : 298 Мбайт (2%)
Заголовок : Киномания
Язык : Russian
Default : Нет
Forced : Нет
Аудио #3
Идентификатор : 4
Формат : AC-3
Формат/Информация : Audio Coding 3
Расширение режима : CM (complete main)
Параметр Endianness формата : Big
Идентификатор кодека : A_AC3
Продолжительность : 1 ч. 48 м.
Вид битрейта : Постоянный
Битрейт : 192 Кбит/сек
Каналы : 2 канала
Расположение каналов : Front: L R
Частота : 48,0 КГц
Битовая глубина : 16 бит
Метод сжатия : С потерями
Размер потока : 149 Мбайт (1%)
Заголовок : ОРТ
Язык : Russian
Default : Нет
Forced : Нет
Аудио #4
Идентификатор : 5
Формат : AC-3
Формат/Информация : Audio Coding 3
Расширение режима : CM (complete main)
Параметр Endianness формата : Big
Идентификатор кодека : A_AC3
Продолжительность : 1 ч. 48 м.
Вид битрейта : Постоянный
Битрейт : 192 Кбит/сек
Каналы : 2 канала
Расположение каналов : Front: L R
Частота : 48,0 КГц
Битовая глубина : 16 бит
Метод сжатия : С потерями
Размер потока : 149 Мбайт (1%)
Заголовок : Премьер Видео Фильм
Язык : Russian
Default : Нет
Forced : Нет
Аудио #5
Идентификатор : 6
Формат : DTS
Формат/Информация : Digital Theater Systems
Режим : 16
Параметр Endianness формата : Big
Идентификатор кодека : A_DTS
Продолжительность : 1 ч. 48 м.
Вид битрейта : Постоянный
Битрейт : 1509 Кбит/сек
Каналы : 6 каналов
Расположение каналов : Front: L C R, Side: L R, LFE
Частота : 48,0 КГц
Битовая глубина : 24 бит
Метод сжатия : С потерями
Размер потока : 1,14 Гбайт (8%)
Заголовок : Гаевский
Язык : Russian
Default : Нет
Forced : Нет
Аудио #6
Идентификатор : 7
Формат : AC-3
Формат/Информация : Audio Coding 3
Расширение режима : CM (complete main)
Параметр Endianness формата : Big
Идентификатор кодека : A_AC3
Продолжительность : 1 ч. 48 м.
Вид битрейта : Постоянный
Битрейт : 448 Кбит/сек
Каналы : 6 каналов
Расположение каналов : Front: L C R, Side: L R, LFE
Частота : 48,0 КГц
Битовая глубина : 16 бит
Метод сжатия : С потерями
Размер потока : 347 Мбайт (2%)
Заголовок : Гаврилов
Язык : Russian
Default : Нет
Forced : Нет
Аудио #7
Идентификатор : 8
Формат : AC-3
Формат/Информация : Audio Coding 3
Расширение режима : CM (complete main)
Параметр Endianness формата : Big
Идентификатор кодека : A_AC3
Продолжительность : 1 ч. 48 м.
Вид битрейта : Постоянный
Битрейт : 448 Кбит/сек
Каналы : 6 каналов
Расположение каналов : Front: L C R, Side: L R, LFE
Частота : 48,0 КГц
Битовая глубина : 16 бит
Метод сжатия : С потерями
Размер потока : 347 Мбайт (2%)
Заголовок : Живов
Язык : Russian
Default : Нет
Forced : Нет
Аудио #8
Идентификатор : 9
Формат : AC-3
Формат/Информация : Audio Coding 3
Расширение режима : CM (complete main)
Параметр Endianness формата : Big
Идентификатор кодека : A_AC3
Продолжительность : 1 ч. 48 м.
Вид битрейта : Постоянный
Битрейт : 192 Кбит/сек
Каналы : 2 канала
Расположение каналов : Front: L R
Частота : 48,0 КГц
Битовая глубина : 16 бит
Метод сжатия : С потерями
Размер потока : 149 Мбайт (1%)
Заголовок : Визгунов
Язык : Russian
Default : Нет
Forced : Нет
Аудио #9
Идентификатор : 10
Формат : DTS
Формат/Информация : Digital Theater Systems
Режим : 16
Параметр Endianness формата : Big
Идентификатор кодека : A_DTS
Продолжительность : 1 ч. 48 м.
Вид битрейта : Постоянный
Битрейт : 1509 Кбит/сек
Каналы : 6 каналов
Расположение каналов : Front: L C R, Side: L R, LFE
Частота : 48,0 КГц
Битовая глубина : 24 бит
Метод сжатия : С потерями
Размер потока : 1,14 Гбайт (8%)
Язык : English
Default : Нет
Forced : Нет
Текст #1
Идентификатор : 11
Формат : UTF-8
Идентификатор кодека : S_TEXT/UTF8
Идентификатор кодека/Информация : UTF-8 Plain Text
Язык : Russian
Default : Нет
Forced : Нет
Текст #2
Идентификатор : 12
Формат : UTF-8
Идентификатор кодека : S_TEXT/UTF8
Идентификатор кодека/Информация : UTF-8 Plain Text
Язык : English
Default : Нет
Forced : Нет
Меню
00:00:00.000 : en:Main Titles: Sparring Partners
00:05:28.286 : en:Predawn Run
00:13:03.157 : en:Skyjacked
00:17:41.977 : en:A Press Release
00:20:00.907 : en:No Nukes
00:22:59.336 : en:An Officer and a Ranger
00:26:38.930 : en:On Schedule
00:33:55.240 : en:Air Raid
00:42:54.655 : en:Road Games
00:50:53.007 : en:Armed and Dangerous
00:53:59.402 : en:Going Underground
01:04:42.711 : en:Race Against Time
01:08:48.164 : en:Having a Blast
01:11:17.146 : en:Back on Deakins' Trail
01:14:29.881 : en:The Stowaway
01:18:00.509 : en:"What About the Girl?"
01:20:56.184 : en:Making Tracks
01:26:34.189 : en:The Rescuers
01:28:49.532 : en:Crack Shot
01:30:31.175 : en:Riding the Rails
01:33:05.578 : en:The Final Countdown
01:42:13.417 : en:End Titles
-
Скачать

Скачать торрент!

Как скачивать? · Что такое торрент? · Рейтинг и ограничения

Сайт не распространяет и не хранит электронные версии произведений, а лишь предоставляет доступ к создаваемому пользователями каталогу ссылок на торрент-файлы, которые содержат только списки хеш-сумм

[Профиль] [ЛС]
Показать сообщения:    
Ответить на тему

Текущее время: Сегодня 12:14

Часовой пояс: GMT + 4



Вы не можете начинать темы
Вы не можете отвечать на сообщения
Вы не можете редактировать свои сообщения
Вы не можете удалять свои сообщения
Вы не можете голосовать в опросах
Вы не можете прикреплять файлы к сообщениям
Вы не можете скачивать файлы