Шина / Шина - королева джунглей / Sheena (Джон Гиллермин /John Guillermin) [1984, США, приключения, HDTVRip 1080p] MVO (ОРТ) + VO (Максим Логинофф) + Sub Fre + Original Eng

Ответить на тему
 
Автор Сообщение

user ®

Стаж: 7 лет 7 месяцев

Сообщений: 20008

Пост Пост: #1 от 12-Сен-2015 16:24

[Цитировать]

Шина / Шина - королева джунглей / Sheena
Страна: США
Жанр: приключения
Год выпуска: 1984
Продолжительность: 01:51:41
Перевод 1: Профессиональный (многоголосый закадровый) - ОРТ
Перевод 2: Одноголосый закадровый - Максим Логинофф
Cубтитры: французские
Оригинальная аудиодорожка: английский
Режиссер: Джон Гиллермин /John Guillermin
В ролях: Таня Робертс, Тед Уасс, Донован Скотт, Элизабет Ренье Торо, Франс Зобда, Тревор Томас, Клифтон Джонс, Джон Форджэм, Эррол Джон, Сильвестр Уильямс
Описание: Что делает белокурая, дикая и воинственная красавица в африканских джунглях? Как она сюда попала? Это Шина — королева джунглей. Её белые родители были убиты во время сафари, а девочку взяла на воспитание колдунья из местного племени. Шина выросла, теперь она полна сил, очаровательна, владеет магией и защищает африканские джунгли и их обитателей, как свой собственный дом, от вторжения чужаков!
Сэмпл: https://yadi.sk/i/4yQ9wQMOiyvpp
Тип релиза: HDTVRip 1080p
Контейнер: MKV
Видео: 1920x818, 25 fps, MPEG-4 AVC, 9248 Kbps
Аудио 1: Russian: 48 kHz, AC3, 2 ch, 192 kbps |ОРТ|
Аудио 2: Russian: 48 kHz, AC3, 2 ch, 192 kbps |Максим Логинофф|
Аудио 3: English: 48 kHz, AC3, 2 ch, 192 kbps
Формат субтитров: softsub (SRT)
MediaInfo
General
Format : Matroska
Format version : Version 4 / Version 2
File size : 7.82 GiB
Duration : 1h 51mn
Overall bit rate mode : Variable
Overall bit rate : 10.0 Mbps
Encoded date : UTC 2015-09-10 07:47:44
Writing application : mkvmerge v8.3.0 ('Over the Horizon') 64bit
Writing library : libebml v1.3.1 + libmatroska v1.4.2
DURATION : 01:51:33.824000000
NUMBER_OF_FRAMES : 209182
NUMBER_OF_BYTES : 160651776
_STATISTICS_WRITING_APP : mkvmerge v8.3.0 ('Over the Horizon') 64bit
_STATISTICS_WRITING_DATE_UTC : 2015-09-10 07:47:44
_STATISTICS_TAGS : BPS DURATION NUMBER_OF_FRAMES NUMBER_OF_BYTES
Video
ID : 1
Format : AVC
Format/Info : Advanced Video Codec
Format profile : High@L4.1
Format settings, CABAC : Yes
Format settings, ReFrames : 4 frames
Codec ID : V_MPEG4/ISO/AVC
Duration : 1h 51mn
Bit rate mode : Variable
Bit rate : 9 248 Kbps
Maximum bit rate : 9 450 Kbps
Width : 1 920 pixels
Height : 818 pixels
Display aspect ratio : 2.35:1
Frame rate mode : Constant
Frame rate : 25.000 fps
Color space : YUV
Chroma subsampling : 4:2:0
Bit depth : 8 bits
Scan type : Progressive
Bits/(Pixel*Frame) : 0.236
Stream size : 7.21 GiB (92%)
Writing library : x264 core 148 r2579 73ae2d1
Encoding settings : cabac=1 / ref=4 / deblock=1:-2:-2 / analyse=0x3:0x113 / me=umh / subme=10 / psy=1 / psy_rd=1.00:0.15 / mixed_ref=1 / me_range=24 / chroma_me=1 / trellis=2 / 8x8dct=1 / cqm=0 / deadzone=21,11 / fast_pskip=1 / chroma_qp_offset=-3 / threads=12 / lookahead_threads=1 / sliced_threads=0 / nr=0 / decimate=1 / interlaced=0 / bluray_compat=0 / constrained_intra=0 / bframes=5 / b_pyramid=2 / b_adapt=2 / b_bias=0 / direct=3 / weightb=1 / open_gop=0 / weightp=2 / keyint=250 / keyint_min=25 / scenecut=40 / intra_refresh=0 / rc_lookahead=50 / rc=crf / mbtree=0 / crf=18.0 / qcomp=0.60 / qpmin=0 / qpmax=69 / qpstep=4 / vbv_maxrate=9450 / vbv_bufsize=62500 / crf_max=0.0 / nal_hrd=vbr / filler=0 / ip_ratio=1.40 / pb_ratio=1.30 / aq=1:1.00
Default : Yes
Forced : No
Audio #1
ID : 2
Format : AC-3
Format/Info : Audio Coding 3
Mode extension : CM (complete main)
Format settings, Endianness : Big
Codec ID : A_AC3
Duration : 1h 51mn
Bit rate mode : Constant
Bit rate : 192 Kbps
Channel(s) : 2 channels
Channel positions : Front: L R
Sampling rate : 48.0 KHz
Compression mode : Lossy
Stream size : 153 MiB (2%)
Title : MVO
Language : Russian
Default : Yes
Forced : No
Audio #2
ID : 3
Format : AC-3
Format/Info : Audio Coding 3
Mode extension : CM (complete main)
Format settings, Endianness : Big
Codec ID : A_AC3
Duration : 1h 51mn
Bit rate mode : Constant
Bit rate : 192 Kbps
Channel(s) : 2 channels
Channel positions : Front: L R
Sampling rate : 48.0 KHz
Compression mode : Lossy
Stream size : 153 MiB (2%)
Title : AVO
Language : Russian
Default : No
Forced : No
Audio #3
ID : 4
Format : AC-3
Format/Info : Audio Coding 3
Mode extension : CM (complete main)
Format settings, Endianness : Big
Codec ID : A_AC3
Duration : 1h 51mn
Bit rate mode : Constant
Bit rate : 192 Kbps
Channel(s) : 2 channels
Channel positions : Front: L R
Sampling rate : 48.0 KHz
Compression mode : Lossy
Stream size : 153 MiB (2%)
Language : English
Default : No
Forced : No
Text
ID : 5
Format : UTF-8
Codec ID : S_TEXT/UTF8
Codec ID/Info : UTF-8 Plain Text
Language : French
Default : No
Forced : No
Скриншоты
Скачать

Скачать торрент!

Как скачивать? · Что такое торрент? · Рейтинг и ограничения

Сайт не распространяет и не хранит электронные версии произведений, а лишь предоставляет доступ к создаваемому пользователями каталогу ссылок на торрент-файлы, которые содержат только списки хеш-сумм

[Профиль] [ЛС]
Показать сообщения:    
Ответить на тему

Текущее время: Сегодня 20:33

Часовой пояс: GMT + 4



Вы не можете начинать темы
Вы не можете отвечать на сообщения
Вы не можете редактировать свои сообщения
Вы не можете удалять свои сообщения
Вы не можете голосовать в опросах
Вы не можете прикреплять файлы к сообщениям
Вы не можете скачивать файлы