Грязная кампания за честные выборы / The Campaign (Джей Роуч / Jay Roach) [2012, США, комедия, BDRip 720p] [Extended Cut] Dub + MVO + DVO + Original Eng + Sub Eng

Ответить на тему
 
Автор Сообщение

user ®

Стаж: 7 лет 7 месяцев

Сообщений: 20008

Пост Пост: #1 от 12-Сен-2015 16:24

[Цитировать]

Грязная кампания за честные выборы / The Campaign«Хуже нас - лучше нет!»Расширенная версия / Extended Cut
________________________________________________________________________________________
Страна: США
Студия: Warner Bros.
Жанр: Комедия
Год выпуска: 2012
Продолжительность: 01:35:40
Перевод 1: Профессиональный (дублированный) | ТНТ
Перевод 2: Профессиональный (многоголосый закадровый) | R5
Перевод 3: Профессиональный (двухголосый закадровый) | Пиратская Студия
Оригинальная аудиодорожка: английский
Cубтитры: английские
Режиссер: Джей Роуч / Jay Roach
В ролях: Уилл Феррелл, Зак Галифианакис, Джейсон Судейкис, Сара Бэйкер, Дилан МакДермотт, Кэтрин ЛаНаса, Брайан Кокс, Джон Литгоу, Дэн Эйкройд, Карен Маруяма, Скотт А. Мартин
Описание: Два конкурирующих политика Кэм Брэди и Марти Хаггинс, пытаются победить на выборах, чтобы представлять свой небольшой штат Северная Каролина в Палате представителей США. Каждый при этом использует свои методы для достижения наилучшего результата.
________________________________________________________________________________________

Видеоряд от: DON (The Campaign 2012 1080p 2in1 Blu-Ray AVC DTS-HD MA5.1-HDChina)
Тип релиза: BDRip 720p
Контейнер: MKV
Видео: 1280x720, 23.976 fps, x264@L4.1, ~7000 kbps avg
Аудио 1: Russian: 48 kHz, AC3, 2/0 (L,R) ch, ~192 kbps avg |Дубляж, ТНТ|
Аудио 2: Russian: 48 kHz, AC3, 3/2 (L,C,R,l,r) + LFE ch, ~384.00 kbps avg |Многоголосый закадровый, R5|
Аудио 3: Russian: 48 kHz, AC3, 3/2 (L,C,R,l,r) + LFE ch, ~448.00 kbps avg |Двухголосый закадровый, Пиратская Студия|
Аудио 4: English: 48 kHz, DTS, 3/2 (L,C,R,l,r) + LFE ch, ~1536 kbps avg
Cубтитры: английские
Цитата:
  • 1-я и 2-я дорожки с театральных, укороченных версий - на расширенные места в них сделаны вставки из двухголосой дорожки
Скриншоты MediaInfo
General
Unique ID : 229653462720835150619799660196369852869 (0xACC5A5E7D35853579A6D81FE8D30E9C5)
Complete name : D:\The.Campaign.2012.Extended.Blu.Ray.720p.3xRus.Eng.-DON.mkv
Format : Matroska
Format version : Version 4 / Version 2
File size : 6.37 GiB
Duration : 1h 35mn
Overall bit rate : 9 528 Kbps
Movie name : Грязная кампания за честные выборы / The Campaign (2012) -=DON=-
Encoded date : UTC 2015-09-10 14:53:14
Writing application : mkvmerge v8.3.0 ('Over the Horizon') 64bit
Writing library : libebml v1.3.1 + libmatroska v1.4.2
Attachements : cover.jpg
DURATION : 01:35:40.694000000
NUMBER_OF_FRAMES : 538190
NUMBER_OF_BYTES : 1082838280
_STATISTICS_WRITING_APP : mkvmerge v8.3.0 ('Over the Horizon') 64bit
_STATISTICS_WRITING_DATE_UT : 2015-09-10 14:53:14
_STATISTICS_TAGS : BPS DURATION NUMBER_OF_FRAMES NUMBER_OF_BYTES
Video
ID : 1
Format : AVC
Format/Info : Advanced Video Codec
Format profile : High@L4.1
Format settings, CABAC : Yes
Format settings, ReFrames : 9 frames
Codec ID : V_MPEG4/ISO/AVC
Duration : 1h 35mn
Bit rate : 7 000 Kbps
Width : 1 280 pixels
Height : 720 pixels
Display aspect ratio : 16:9
Frame rate mode : Constant
Frame rate : 23.976 fps
Color space : YUV
Chroma subsampling : 4:2:0
Bit depth : 8 bits
Scan type : Progressive
Bits/(Pixel*Frame) : 0.317
Stream size : 4.55 GiB (71%)
Title : Грязная кампания за честные выборы / The Campaign (2012) BDRip 720p
Writing library : x264 core 116 r2057 0ba8a9c
Encoding settings : cabac=1 / ref=9 / deblock=1:-3:-3 / analyse=0x3:0x133 / me=umh / subme=10 / psy=1 / psy_rd=1.10:0.10 / mixed_ref=1 / me_range=32 / chroma_me=1 / trellis=2 / 8x8dct=1 / cqm=0 / deadzone=21,11 / fast_pskip=0 / chroma_qp_offset=-3 / threads=14 / sliced_threads=0 / nr=0 / decimate=0 / interlaced=0 / bluray_compat=0 / constrained_intra=0 / bframes=7 / b_pyramid=2 / b_adapt=2 / b_bias=0 / direct=3 / weightb=1 / open_gop=0 / weightp=2 / keyint=250 / keyint_min=23 / scenecut=40 / intra_refresh=0 / rc_lookahead=40 / rc=2pass / mbtree=0 / bitrate=7000 / ratetol=1.0 / qcomp=0.65 / qpmin=0 / qpmax=40 / qpstep=4 / cplxblur=20.0 / qblur=0.5 / vbv_maxrate=50000 / vbv_bufsize=50000 / nal_hrd=none / ip_ratio=1.25 / pb_ratio=1.25 / aq=1:0.80
Language : English
Default : Yes
Forced : No
DURATION : 01:35:39.693000000
NUMBER_OF_FRAMES : 137615
NUMBER_OF_BYTES : 5017137956
_STATISTICS_WRITING_APP : mkvmerge v8.3.0 ('Over the Horizon') 64bit
_STATISTICS_WRITING_DATE_UT : 2015-09-10 14:53:14
_STATISTICS_TAGS : BPS DURATION NUMBER_OF_FRAMES NUMBER_OF_BYTES
Audio #1
ID : 2
Format : AC-3
Format/Info : Audio Coding 3
Mode extension : CM (complete main)
Format settings, Endianness : Big
Codec ID : A_AC3
Duration : 1h 35mn
Bit rate mode : Constant
Bit rate : 192 Kbps
Channel(s) : 2 channels
Channel positions : Front: L R
Sampling rate : 48.0 KHz
Bit depth : 16 bits
Compression mode : Lossy
Stream size : 131 MiB (2%)
Title : Дублированный, THT
Language : Russian
Default : Yes
Forced : No
Audio #2
ID : 3
Format : AC-3
Format/Info : Audio Coding 3
Mode extension : CM (complete main)
Format settings, Endianness : Big
Codec ID : A_AC3
Duration : 1h 35mn
Bit rate mode : Constant
Bit rate : 384 Kbps
Channel(s) : 6 channels
Channel positions : Front: L C R, Side: L R, LFE
Sampling rate : 48.0 KHz
Bit depth : 16 bits
Compression mode : Lossy
Stream size : 263 MiB (4%)
Title : Многолосый закадровый, R5
Language : Russian
Default : No
Forced : No
Audio #3
ID : 4
Format : AC-3
Format/Info : Audio Coding 3
Mode extension : CM (complete main)
Format settings, Endianness : Big
Codec ID : A_AC3
Duration : 1h 35mn
Bit rate mode : Constant
Bit rate : 448 Kbps
Channel(s) : 6 channels
Channel positions : Front: L C R, Side: L R, LFE
Sampling rate : 48.0 KHz
Bit depth : 16 bits
Compression mode : Lossy
Stream size : 307 MiB (5%)
Title : Двухголосый закадровый, Пиратская Студия
Language : Russian
Default : No
Forced : No
Audio #4
ID : 5
Format : DTS
Format/Info : Digital Theater Systems
Mode : 16
Format settings, Endianness : Big
Codec ID : A_DTS
Duration : 1h 35mn
Bit rate mode : Constant
Bit rate : 1 509 Kbps
Channel(s) : 6 channels
Channel positions : Front: L C R, Side: L R, LFE
Sampling rate : 48.0 KHz
Bit depth : 24 bits
Compression mode : Lossy
Stream size : 1.01 GiB (16%)
Language : English
Default : No
Forced : No
Text
ID : 6
Format : UTF-8
Codec ID : S_TEXT/UTF8
Codec ID/Info : UTF-8 Plain Text
Language : English
Default : No
Forced : No
Menu
00:00:00.000 : en:00:00:00.000
00:09:42.582 : en:00:09:42.582
00:20:13.295 : en:00:20:13.295
00:32:16.393 : en:00:32:16.393
00:41:10.635 : en:00:41:10.635
00:55:30.744 : en:00:55:30.744
01:09:48.726 : en:01:09:48.726
01:19:46.448 : en:01:19:46.448
01:30:53.198 : en:01:30:53.198
x264 log
x264 [info]: frame I:1525 Avg QP:16.66 size:142090
x264 [info]: frame P33174 Avg QP:17.32 size: 57693
x264 [info]: frame B:102916 Avg QP:17.63 size: 28047
x264 [info]: consecutive B-frames: 2.3% 2.6% 6.7% 56.0% 8.2% 14.8% 3.3% 6.1%
encoded 137615 frames, 6.83 fps, 6992.90 kb/s
Скачать

Скачать торрент!

Как скачивать? · Что такое торрент? · Рейтинг и ограничения

Сайт не распространяет и не хранит электронные версии произведений, а лишь предоставляет доступ к создаваемому пользователями каталогу ссылок на торрент-файлы, которые содержат только списки хеш-сумм

[Профиль] [ЛС]
Показать сообщения:    
Ответить на тему

Текущее время: Сегодня 20:03

Часовой пояс: GMT + 4



Вы не можете начинать темы
Вы не можете отвечать на сообщения
Вы не можете редактировать свои сообщения
Вы не можете удалять свои сообщения
Вы не можете голосовать в опросах
Вы не можете прикреплять файлы к сообщениям
Вы не можете скачивать файлы