Парень с того света / My Boyfriend\'s Back (Боб Бэлабан / Bob Balaban) [1993, США, комедия, ужасы, фэнтези, мелодрама, WEB-DL 720p] AVO (Андрей Дольский) + Sub Eng + Original Eng

Ответить на тему
 
Автор Сообщение

user ®

Стаж: 7 лет 7 месяцев

Сообщений: 20008

Пост Пост: #1 от 12-Сен-2015 16:24

[Цитировать]

Парень с того света / My Boyfriend's Back
Страна: США
Жанр: комедия, ужасы, фэнтези, мелодрама
Год выпуска: 1993
Продолжительность: 01:24:33
Перевод: Авторский (одноголосый закадровый) Андрей Дольский
Cубтитры: английские
Оригинальная аудиодорожка: английский
Режиссер: Боб Бэлабан / Bob Balaban
В ролях: Эндрю Лоури, Трейси Линд, Дэнни Зорн, Эдвард Херрманн, Мэри Бет Хёрт, Джей О. Сэндерс, Либби Виллари, Мэттью Фокс, Филип Сеймур Хоффман, Пол Дули...
Описание: Как порою трудно завоевать сердце девушки! И особенно нелегко, если ты… покойник! Школьник Джонни Дингл очень хотел уговорить прелестную Мисси МакКул пойти на выпускной бал с ним, но трагически погиб на подступах к этому великому событию. Однако, как ни странно, сей печальный инцидент не помешал Джонни попытаться завершить начатое: упорный ухажер восстал из мертвых с твердым намерением все-таки потанцевать с Мисси, правда, прежде придется решить ряд насущных для всякого начинающего зомби проблем…
Доп. информация: Звук с раздачи sasha20072007. Синхронизация звука - Dreven.
Сэмпл: http://multi-up.com/1065944
Тип релиза: WEB-DL 720p
Контейнер: MKV
Видео: 1280x704 (16:9), 23.976 fps, AVC, ~3980 Kbps, 0.184 bits/pixel
Аудио 1: Russian, 48.0 KHz, AC3, 2 ch, 192 Kbps - Андрей Дольский
Аудио 2: English, 48.0 KHz, AC3, 2 ch, 192 Kbps

MediaInfo
General
Unique ID : 173914285607294666602390251531676836556 (0x82D6AC4C668C34FCB203F98E5A0E62CC)
Complete name : C:\My Boyfriend's Back. WEB-DL 720p.mkv
Format : Matroska
Format version : Version 4 / Version 2
File size : 2.63 GiB
Duration : 1h 24mn
Overall bit rate : 4 452 Kbps
Movie name :
Encoded date : UTC 2015-09-11 04:31:35
Writing application : mkvmerge v8.2.0 ('World of Adventure') 64bit
Writing library : libebml v1.3.1 + libmatroska v1.4.2
DURATION : 01:24:32.928000000
NUMBER_OF_FRAMES : 158529
NUMBER_OF_BYTES : 121750272
_STATISTICS_WRITING_APP : mkvmerge v8.2.0 ('World of Adventure') 64bit
_STATISTICS_WRITING_DATE_UT : 2015-09-11 04:31:35
_STATISTICS_TAGS : BPS DURATION NUMBER_OF_FRAMES NUMBER_OF_BYTES
Video
ID : 1
Format : AVC
Format/Info : Advanced Video Codec
Format profile : High@L3.1
Format settings, CABAC : No
Format settings, ReFrames : 2 frames
Codec ID : V_MPEG4/ISO/AVC
Duration : 1h 24mn
Bit rate : 3 980 Kbps
Width : 1 280 pixels
Height : 704 pixels
Display aspect ratio : 16:9
Frame rate mode : Constant
Frame rate : 23.976 fps
Color space : YUV
Chroma subsampling : 4:2:0
Bit depth : 8 bits
Scan type : Progressive
Bits/(Pixel*Frame) : 0.184
Stream size : 2.35 GiB (89%)
Language : English
Default : Yes
Forced : No
Color range : Limited
Color primaries : BT.709
Transfer characteristics : BT.709
Matrix coefficients : BT.709
Audio #1
ID : 2
Format : AC-3
Format/Info : Audio Coding 3
Mode extension : CM (complete main)
Format settings, Endianness : Big
Codec ID : A_AC3
Duration : 1h 24mn
Bit rate mode : Constant
Bit rate : 192 Kbps
Channel(s) : 2 channels
Channel positions : Front: L R
Sampling rate : 48.0 KHz
Compression mode : Lossy
Stream size : 116 MiB (4%)
Title : Андрей Дольский
Language : Russian
Default : Yes
Forced : No
Audio #2
ID : 3
Format : AC-3
Format/Info : Audio Coding 3
Mode extension : CM (complete main)
Format settings, Endianness : Big
Codec ID : A_AC3
Duration : 1h 24mn
Bit rate mode : Constant
Bit rate : 192 Kbps
Channel(s) : 2 channels
Channel positions : Front: L R
Sampling rate : 48.0 KHz
Compression mode : Lossy
Stream size : 116 MiB (4%)
Language : English
Default : No
Forced : No
Text
ID : 4
Format : UTF-8
Codec ID : S_TEXT/UTF8
Codec ID/Info : UTF-8 Plain Text
Language : English
Default : No
Forced : No
Menu
00:00:00.000 : en:My Boyfriend's Back
00:14:52.000 : en:Welcome Home Son
00:28:24.000 : en:"I'm Dead"
00:34:26.000 : en:Johnny's Falling Apart
00:42:28.000 : en:"I Ate Chuck For You"
00:52:50.000 : en:Don't You Want A Snack?
00:58:39.000 : en:You're Going To The Prom With Buck
01:05:33.000 : en:"Where's Johnny?"
01:08:18.000 : en:"Johnny Run"
01:10:35.000 : en:Don't Kill Johnny
01:13:45.000 : en:"I'm In Heaven"
01:21:28.000 : en:End Credits
Скриншоты
Скачать

Скачать торрент!

Как скачивать? · Что такое торрент? · Рейтинг и ограничения

Сайт не распространяет и не хранит электронные версии произведений, а лишь предоставляет доступ к создаваемому пользователями каталогу ссылок на торрент-файлы, которые содержат только списки хеш-сумм

[Профиль] [ЛС]
Показать сообщения:    
Ответить на тему

Текущее время: Сегодня 15:39

Часовой пояс: GMT + 4



Вы не можете начинать темы
Вы не можете отвечать на сообщения
Вы не можете редактировать свои сообщения
Вы не можете удалять свои сообщения
Вы не можете голосовать в опросах
Вы не можете прикреплять файлы к сообщениям
Вы не можете скачивать файлы