В лабиринте молчания / Im Labyrinth des Schweigens (Джулио Риччиарелли / Giulio Ricciarelli) [2014, Германия, история, драма, BDRip 720p] VO (Project Web Money) + Sub Rus + Original Ger

Ответить на тему
 
Автор Сообщение

user ®

Стаж: 7 лет 7 месяцев

Сообщений: 20008

Пост Пост: #1 от 12-Сен-2015 16:24

[Цитировать]

В лабиринте молчания / Im Labyrinth des Schweigens
Страна: Германия
Жанр: история, драма
Год выпуска: 2014
Продолжительность: 02:03:00
Перевод: Одноголосый закадровый Project_Web_Money
Cубтитры: русские Mig_88
Оригинальная аудиодорожка: немецкий
Режиссер: Джулио Риччиарелли / Giulio Ricciarelli
В ролях: Александр Фелинг, Андре Зиманский, Фредерике Бехт, Йоханнес Криш, Йохан фон Бюлов, Роберт Хунгер-Бюлер, Ханси Йохман, Лукас Мико, Герт Фосс, Тим Уильямс
Описание: Фильм посвящен «Освенцимским процессам» — под таким названием в немецкую историю вошли суды над охранниками, надзирателями и прочим персоналом концлагеря Освенцим (Аушвиц), которые проходили во Франкфурте-на-Майне в 60-е годы. Молодой прокурор Йоханн Радманн обнаруживает сведения, изобличающие преступную деятельность бывшего персонала концлагеря. При поддержке генерального прокурора Фрица Бауэра (реальная фигура) он начинает расследование, в результате которого на скамье подсудимых оказалась целая «команда» лагерных палачей. Основная тема фильма — конфликт между теми, кто желает забыть прошлое во имя национального примирения в условиях «экономического чуда» и теми, кто стремится к установлению справедливости.
Доп. информация: Фильм выдвинутый Германией на "Оскар-2016" в категории "Лучший иностранный фильм"!!!
Сэмпл: http://sendfile.su/1153666 или http://multi-up.com/1065999
Тип релиза: BDRip 720p
Контейнер: MKV
Видео: MPEG-4 AVC, 1280x544, 4000 кбит/сек, 23.976 fps
Аудио: 48 kHz, DTS, 3/2 (L,C,R,l,r) + LFE ch, ~1510.00 kbps avg VO Project_Web_Money
Аудио 2: 48 kHz, DTS, 3/2 (L,C,R,l,r) + LFE ch, ~1510.00 kbps avg original
Формат субтитров: softsub (SRT)
MediaInfo
В_лабиринте_молчания_2014_VO_Project_Web_Money+SUB_720p.BluRay.mkv
Формат : Matroska
Версия формата : Version 2
Размер файла : 5,86 Гбайт
Продолжительность : 2 ч. 3 м.
Общий поток : 7367 Кбит/сек
Название фильма : релиз группы Европейское кино и сериалы | Project Web Money
Дата кодирования : UTC 2015-09-11 09:41:12
Программа кодирования : mkvmerge v5.0.1 ('Es ist Sommer') built on Oct 9 2011 11:55:43
Библиотека кодирования : libebml v1.2.2 + libmatroska v1.3.0
Видео
Идентификатор : 1
Формат : AVC
Формат/Информация : Advanced Video Codec
Профиль формата : High@L4.1
Параметр CABAC формата : Да
Параметр ReFrames формата : 9 кадров
Параметры GOP формата : M=6, N=32
Идентификатор кодека : V_MPEG4/ISO/AVC
Продолжительность : 2 ч. 3 м.
Битрейт : 4002 Кбит/сек
Ширина : 1280 пикс.
Высота : 544 пикс.
Соотношение сторон : 2,35:1
Частота кадров : 23,976 кадр/сек
Цветовое пространство : YUV
Подвыборка цветности : 4:2:0
Битовая глубина : 8 бит
Тип развёртки : Прогрессивная
Бит/(Пиксели*Кадры) : 0.219
Размер потока : 3,15 Гбайт (54%)
Библиотека кодирования : x264 core 146 r2538 121396c
Настройки программы : cabac=1 / ref=9 / deblock=1:-2:-2 / analyse=0x3:0x113 / me=umh / subme=9 / psy=1 / psy_rd=1.30:0.00 / mixed_ref=1 / me_range=16 / chroma_me=1 / trellis=2 / 8x8dct=1 / cqm=0 / deadzone=21,11 / fast_pskip=0 / chroma_qp_offset=-2 / threads=12 / lookahead_threads=1 / sliced_threads=0 / nr=0 / decimate=1 / interlaced=0 / bluray_compat=0 / constrained_intra=0 / bframes=5 / b_pyramid=2 / b_adapt=1 / b_bias=0 / direct=3 / weightb=1 / open_gop=0 / weightp=2 / keyint=250 / keyint_min=23 / scenecut=40 / intra_refresh=0 / rc_lookahead=40 / rc=crf / mbtree=1 / crf=16.0 / qcomp=0.60 / qpmin=16 / qpmax=69 / qpstep=4 / ip_ratio=1.40 / aq=1:1.00
Язык : German
Аудио #1
Идентификатор : 2
Формат : DTS
Формат/Информация : Digital Theater Systems
Идентификатор кодека : A_DTS
Продолжительность : 2 ч. 3 м.
Вид битрейта : Постоянный
Битрейт : 1510 Кбит/сек
Каналы : 6 каналов
Расположение каналов : Front: L C R, Side: L R, LFE
Частота : 48,0 КГц
Битовая глубина : 24 бит
Метод сжатия : С потерями
Размер потока : 1,30 Гбайт (22%)
Заголовок : VO Project_Web_Money
Язык : Russian
Аудио #2
Идентификатор : 3
Формат : DTS
Формат/Информация : Digital Theater Systems
Идентификатор кодека : A_DTS
Продолжительность : 2 ч. 3 м.
Вид битрейта : Постоянный
Битрейт : 1510 Кбит/сек
Каналы : 6 каналов
Расположение каналов : Front: L C R, Side: L R, LFE
Частота : 48,0 КГц
Битовая глубина : 24 бит
Метод сжатия : С потерями
Размер потока : 1,30 Гбайт (22%)
Язык : German
Текст
Идентификатор : 4
Формат : UTF-8
Идентификатор кодека : S_TEXT/UTF8
Идентификатор кодека/Информация : UTF-8 Plain Text
Заголовок : Sub Mig_88
Язык : Russian
Меню
00:00:00.000 : en:00:00:00.000
00:09:05.336 : en:00:09:05.336
00:20:49.331 : en:00:20:49.331
00:31:06.656 : en:00:31:06.656
00:40:05.403 : en:00:40:05.403
00:53:12.564 : en:00:53:12.564
01:01:01.533 : en:01:01:01.533
01:09:37.548 : en:01:09:37.548
01:20:52.848 : en:01:20:52.848
01:32:15.029 : en:01:32:15.029
01:46:28.215 : en:01:46:28.215
01:56:26.646 : en:01:56:26.646
Скриншоты
Скачать

Скачать торрент!

Как скачивать? · Что такое торрент? · Рейтинг и ограничения

Сайт не распространяет и не хранит электронные версии произведений, а лишь предоставляет доступ к создаваемому пользователями каталогу ссылок на торрент-файлы, которые содержат только списки хеш-сумм

[Профиль] [ЛС]
Показать сообщения:    
Ответить на тему

Текущее время: Сегодня 07:55

Часовой пояс: GMT + 4



Вы не можете начинать темы
Вы не можете отвечать на сообщения
Вы не можете редактировать свои сообщения
Вы не можете удалять свои сообщения
Вы не можете голосовать в опросах
Вы не можете прикреплять файлы к сообщениям
Вы не можете скачивать файлы