Школа Эвер Афтер. Дорога в Страну Чудес . Часть 1 из 3 / Ever After High. Way Too Wonderland ( Майк Цанеска / Mike Csunyoscka) [2015, фэнтези, комедия, DVB] Dub

Ответить на тему
 
Автор Сообщение

user ®

Стаж: 11 лет

Сообщений: 15145

Пост Пост: #1 от 12-Сен-2015 00:57

[Цитировать]

Школа Эвер Афтер. Дорога в Страну Чудес . Часть 1 из 3 / Ever After High. Way Too Wonderland
Год выпуска: 2015
Страна: США
Жанр: фэнтези, комедия
Продолжительность: 00:22:16
Перевод: Профессиональный (дублированный)
Русские субтитры: нет
Режиссёр: Майк Цанеска / Mike Csunyoscka
Описание: Случилась страшная беда, мама Лиззи Хартс, Червовая дама попала в опасность. Жители страны чудес сговорились и решили скинуть с престола свою королеву. Как быть, чем я могу помочь своей любимой мамочке, подумала Лиззи! Надо немедленно отправляться в путешествие и разбираться в сложившихся обстоятельствах.
Интересно, смогут ли несколько совсем юных учениц Школы Эвер Афтер спасти королеву? Какие испытания придется пройти девчонкам, с кем сражаться и где добиваться правды?
Доп. информация:

Релиз группы:
Семпл: https://yadi.sk/i/ZH1v0X9kj2u7E
Качество видео: DVB
Формат видео: MPEG-TS
Видео: MPEG4 Video (H264), 720x576@785x576 (4:3), анаморф, 25 fps, 2200 kbps
Аудио: MPEG Audio, 2 сh, 48 kHz, 192 kbps
MediaInfo
General
ID : 1 (0x1)
Complete name : D:\Школа Эвер Афтер. Дорога в Страну Чудес. (2015)\1с. Дорога в Страну Чудес.ts
Format : MPEG-TS
File size : 405 MiB
Duration : 22mn 16s
Overall bit rate mode : Variable
Overall bit rate : 2 540 Kbps
Video
ID : 2564 (0xA04)
Menu ID : 1 (0x1)
Format : AVC
Format/Info : Advanced Video Codec
Format profile : Main@L3.0
Format settings, CABAC : Yes
Format settings, ReFrames : 4 frames
Format settings, GOP : M=8, N=24
Codec ID : 27
Duration : 22mn 16s
Bit rate : 2 220 Kbps
Width : 720 pixels
Height : 576 pixels
Display aspect ratio : 4:3
Frame rate : 25.000 fps
Standard : PAL
Color space : YUV
Chroma subsampling : 4:2:0
Bit depth : 8 bits
Scan type : MBAFF
Scan order : Top Field First
Bits/(Pixel*Frame) : 0.214
Stream size : 354 MiB (87%)
Color primaries : BT.601 PAL
Transfer characteristics : BT.470 System B, BT.470 System G
Matrix coefficients : BT.601
Color range : Limited
Audio
ID : 3564 (0xDEC)
Menu ID : 1 (0x1)
Format : MPEG Audio
Format version : Version 1
Format profile : Layer 2
Codec ID : 3
Duration : 22mn 16s
Bit rate mode : Constant
Bit rate : 192 Kbps
Channel(s) : 2 channels
Sampling rate : 48.0 KHz
Compression mode : Lossy
Stream size : 30.6 MiB (8%)
Language : Russian
Скриншоты
Скачать

Скачать торрент! Школа Эвер Афтер. Дорога в Страну Чудес . Часть 1 из 3 / Ever After High. Way Too Wonderland ( Майк Цанеска / Mike Csunyoscka) [2015, фэнтези, комедия, DVB] Dub

Как скачивать? · Что такое торрент? · Рейтинг и ограничения

Сайт не распространяет и не хранит электронные версии произведений, а лишь предоставляет доступ к создаваемому пользователями каталогу ссылок на торрент-файлы, которые содержат только списки хеш-сумм

[Профиль] [ЛС]
Показать сообщения:    
Ответить на тему

Текущее время: Сегодня 18:50

Часовой пояс: GMT + 4



Вы не можете начинать темы
Вы не можете отвечать на сообщения
Вы не можете редактировать свои сообщения
Вы не можете удалять свои сообщения
Вы не можете голосовать в опросах
Вы не можете прикреплять файлы к сообщениям
Вы не можете скачивать файлы