Бульвар / Boulevard (Дито Монтиель / Dito Montiel) [2014, США, драма, криминал, ЛГБТ, BDRip 1080p] Sub Rus (БлогБастер) + Original Eng

Ответить на тему
 
Автор Сообщение

user ®

Стаж: 7 лет 7 месяцев

Сообщений: 20008

Пост Пост: #1 от 11-Сен-2015 21:51

[Цитировать]

Бульвар / Boulevard
Страна: США
Жанр: драма, криминал
Год выпуска: 2014
Продолжительность: 01:28:08
Перевод: Субтитры БлогБастер
Cубтитры: русские
Оригинальная аудиодорожка: английский
Режиссер: Dito Montiel / Дито Монтиель
В ролях: Робин Уильямс, Кэти Бэйкер, Боб Оденкёрк, Роберто Агуайр, Элеонор Хендрикс
Описание: Нолан Мэк – 60-летний банковский клерк. Старательно поддерживая репутацию добропорядочного семьянина, он тщательно скрывает, и даже пытается подавить в себе тайную страсть к мужчинам. Случайное знакомство с парнем-проституткой ставит под угрозу и семью, и карьеру Нолана…
Сэмпл: https://yadi.sk/i/iGGOjSdzj2t2X
Тип релиза: BDRip 1080p
Контейнер: MKV
Видео: AVC, 10000 Кбит/сек, 23,976 кадра/сек, 1920х800
Аудио: (английский) AC-3, 5.1, 640 Кбит/сек, 48,0 КГц
Формат субтитров: softsub (SRT)
MediaInfo
Общее
Уникальный идентификатор : 239038199445758176385164805663645053312 (0xB3D515265ADB0C7D94D7641647ED3180)
Полное имя : E:\Скаченное с Интернета\µTorrent законченные\Boulevard.mkv
Формат : Matroska
Версия формата : Version 4 / Version 2
Размер файла : 6,55 Гбайт
Продолжительность : 1 ч. 28 м.
Общий поток : 10,6 Мбит/сек
Дата кодирования : UTC 2015-09-09 14:18:28
Программа кодирования : mkvmerge v8.3.0 ('Over the Horizon') 32bit
Библиотека кодирования : libebml v1.3.1 + libmatroska v1.4.2
DURATION : 01:23:51.680000000
NUMBER_OF_FRAMES : 1201
NUMBER_OF_BYTES : 65664
_STATISTICS_WRITING_APP : mkvmerge v8.3.0 ('Over the Horizon') 32bit
_STATISTICS_WRITING_DATE_UTC : 2015-09-09 14:18:28
_STATISTICS_TAGS : BPS DURATION NUMBER_OF_FRAMES NUMBER_OF_BYTES
Видео
Идентификатор : 1
Формат : AVC
Формат/Информация : Advanced Video Codec
Профиль формата : High@L4.1
Параметр CABAC формата : Да
Параметр ReFrames формата : 5 кадров
Идентификатор кодека : V_MPEG4/ISO/AVC
Продолжительность : 1 ч. 28 м.
Битрейт : 10,0 Мбит/сек
Ширина : 1920 пикселей
Высота : 800 пикселей
Соотношение сторон : 2,40:1
Режим частоты кадров : Постоянный
Частота кадров : 23,976 кадра/сек
Цветовое пространство : YUV
Субдискретизация насыщенности : 4:2:0
Битовая глубина : 8 бит
Тип развёртки : Прогрессивная
Бит/(Пиксели*Кадры) : 0.272
Размер потока : 6,03 Гбайт (92%)
Библиотека кодирования : x264 core 148 r2579 73ae2d1
Настройки программы : cabac=1 / ref=5 / deblock=1:0:0 / analyse=0x3:0x133 / me=umh / subme=7 / psy=1 / psy_rd=1.00:0.00 / mixed_ref=1 / me_range=16 / chroma_me=1 / trellis=1 / 8x8dct=1 / cqm=0 / deadzone=21,11 / fast_pskip=0 / chroma_qp_offset=-2 / threads=18 / lookahead_threads=3 / sliced_threads=0 / nr=0 / decimate=1 / interlaced=0 / bluray_compat=0 / constrained_intra=0 / bframes=3 / b_pyramid=2 / b_adapt=1 / b_bias=0 / direct=1 / weightb=1 / open_gop=0 / weightp=2 / keyint=250 / keyint_min=23 / scenecut=40 / intra_refresh=0 / rc_lookahead=40 / rc=2pass / mbtree=1 / bitrate=10008 / ratetol=1.0 / qcomp=0.60 / qpmin=0 / qpmax=69 / qpstep=4 / cplxblur=20.0 / qblur=0.5 / ip_ratio=1.40 / aq=1:1.00
Язык : English
Default : Да
Forced : Нет
DURATION : 01:28:08.125000000
NUMBER_OF_FRAMES : 126788
NUMBER_OF_BYTES : 6610804680
_STATISTICS_WRITING_APP : mkvmerge v8.3.0 ('Over the Horizon') 32bit
_STATISTICS_WRITING_DATE_UTC : 2015-09-09 14:18:28
_STATISTICS_TAGS : BPS DURATION NUMBER_OF_FRAMES NUMBER_OF_BYTES
Аудио
Идентификатор : 2
Формат : AC-3
Формат/Информация : Audio Coding 3
Расширение режима : CM (complete main)
Параметр Endianness формата : Big
Идентификатор кодека : A_AC3
Продолжительность : 1 ч. 28 м.
Вид битрейта : Постоянный
Битрейт : 640 Кбит/сек
Каналы : 6 каналов
Расположение каналов : Front: L C R, Side: L R, LFE
Частота : 48,0 КГц
Битовая глубина : 16 бит
Метод сжатия : С потерями
Размер потока : 403 Мбайт (6%)
Язык : English
Default : Да
Forced : Нет
Текст
Идентификатор : 3
Формат : UTF-8
Идентификатор кодека : S_TEXT/UTF8
Идентификатор кодека/Информация : UTF-8 Plain Text
Язык : Russian
Default : Да
Forced : Нет
Меню
00:00:00.000 : en:00:00:00.000
00:02:30.901 : en:00:02:30.901
00:10:27.377 : en:00:10:27.377
00:18:03.249 : en:00:18:03.249
00:27:19.471 : en:00:27:19.471
00:37:31.958 : en:00:37:31.958
00:45:33.856 : en:00:45:33.856
00:54:43.739 : en:00:54:43.739
01:00:07.187 : en:01:00:07.187
01:03:54.581 : en:01:03:54.581
01:16:00.347 : en:01:16:00.347
01:24:10.295 : en:01:24:10.295
Скриншоты
Скачать

Скачать торрент!

Как скачивать? · Что такое торрент? · Рейтинг и ограничения

Сайт не распространяет и не хранит электронные версии произведений, а лишь предоставляет доступ к создаваемому пользователями каталогу ссылок на торрент-файлы, которые содержат только списки хеш-сумм

[Профиль] [ЛС]
Показать сообщения:    
Ответить на тему

Текущее время: Сегодня 11:56

Часовой пояс: GMT + 4



Вы не можете начинать темы
Вы не можете отвечать на сообщения
Вы не можете редактировать свои сообщения
Вы не можете удалять свои сообщения
Вы не можете голосовать в опросах
Вы не можете прикреплять файлы к сообщениям
Вы не можете скачивать файлы