Взрыв из прошлого / Blast from the Past (Хью Уилсон / Hugh Wilson) [1999, США, фантастика, драма, мелодрама, комедия, BDRip 1080p] [Полная версия] Dub + MVO + AVO + Sub Rus, Eng + Original Eng

Ответить на тему
 
Автор Сообщение

user ®

Стаж: 7 лет 7 месяцев

Сообщений: 20008

Пост Пост: #1 от 11-Сен-2015 18:45

[Цитировать]

Взрыв из прошлого / Blast from the Past (Полная версия)
Страна: США
Жанр: фантастика, драма, мелодрама, комедия
Год выпуска: 1999
Продолжительность: 01:52:06
Перевод 1: Профессиональный (дублированный)
Перевод 2: Профессиональный (многоголосый закадровый)
Перевод 3: Авторский (одноголосый закадровый) - Живов
Cубтитры: русские, английские
Оригинальная аудиодорожка: английский
Режиссер: Хью Уилсон / Hugh Wilson
В ролях: Брендан Фрейзер, Алисия Сильверстоун, Кристофер Уокен, Сисси Спейсек, Дэйв Фоли, Джои Злотник, Дэйл Рауль, Хейден Тэнк, Дуглас Смит, Райан Спаркс и др.
Описание: Адам Уэббер родился нормальным ребенком, но, по глупому недоразумению, провел 35 лет в бомбоубежище вместе со своими родителями. Наивный и искренний, он впервые оказывается среди людей в бушующем Лос-Анджелесе 90-х! И кто знает — может, он еще успеет наверстать упущенное?!
Доп. информация:

СЭМПЛ
Тип релиза: BDRip 1080p
Контейнер: MKV
Видео: 1920x800p, 23.976 fps, x264, 9500 kbps
Аудио:
1. Русский AC3 5.1, 48 khz, 448 kbps |Дубляж (со вставками многоголосого)|
2. Русский DTS 5.1, 48 khz, 1536 kbps |Многоголосый (Сонотек)|
3. Русский DTS 5.1, 48 khz, 1536 kbps |Живов|
4. Английский DTS 5.1, 48 khz, 1536 kbps |Original|
Cубтитры: SRT
Навигация по главам: есть
Скриншоты x264 log
x264 [info]: frame I:1159 Avg QP:16.38 size:197662
x264 [info]: frame P:34340 Avg QP:19.00 size: 88320
x264 [info]: frame B:125771 Avg QP:20.96 size: 37523
MediaInfo
Общее
Уникальный идентификатор : 254878699124618566540640370331553379874 (0xBFBFDA15020CD311B27723CB8FA03622)
Полное имя : D:\Blast.from.the.Past.1998.BDRip.1080p.x264.3xRus.Eng.mkv
Формат : Matroska
Версия формата : Version 2
Размер файла : 11,3 Гбайт
Продолжительность : 1 ч. 52 м.
Общий поток : 14,5 Мбит/сек
Название фильма : Released by shurikello
Дата кодирования : UTC 2015-09-07 18:23:40
Программа кодирования : mkvmerge v8.3.0 ('Over the Horizon') 64bit
Библиотека кодирования : libebml v1.3.1 + libmatroska v1.4.2
Видео
Идентификатор : 1
Формат : AVC
Формат/Информация : Advanced Video Codec
Профиль формата : High@L4.1
Параметр CABAC формата : Да
Параметр ReFrames формата : 5 кадров
Идентификатор кодека : V_MPEG4/ISO/AVC
Продолжительность : 1 ч. 52 м.
Битрейт : 9500 Кбит/сек
Ширина : 1920 пикселей
Высота : 800 пикселей
Соотношение сторон : 2,40:1
Режим частоты кадров : Постоянный
Частота кадров : 23,976 кадра/сек
Цветовое пространство : YUV
Субдискретизация насыщенности : 4:2:0
Битовая глубина : 8 бит
Тип развёртки : Прогрессивная
Бит/(Пиксели*Кадры) : 0.258
Размер потока : 7,21 Гбайт (64%)
Библиотека кодирования : x264 core 148 r2597 e86f3a1
Настройки программы : cabac=1 / ref=5 / deblock=1:-3:-3 / analyse=0x3:0x133 / me=tesa / subme=11 / psy=1 / psy_rd=1.00:0.00 / mixed_ref=1 / me_range=48 / chroma_me=1 / trellis=2 / 8x8dct=1 / cqm=0 / deadzone=21,11 / fast_pskip=0 / chroma_qp_offset=-2 / threads=12 / lookahead_threads=2 / sliced_threads=0 / nr=0 / decimate=0 / interlaced=0 / bluray_compat=0 / constrained_intra=0 / bframes=9 / b_pyramid=2 / b_adapt=2 / b_bias=0 / direct=3 / weightb=1 / open_gop=0 / weightp=2 / keyint=240 / keyint_min=23 / scenecut=40 / intra_refresh=0 / rc_lookahead=60 / rc=2pass / mbtree=0 / bitrate=9500 / ratetol=1.0 / qcomp=0.70 / qpmin=0 / qpmax=69 / qpstep=4 / cplxblur=20.0 / qblur=0.5 / vbv_maxrate=50000 / vbv_bufsize=62500 / nal_hrd=none / filler=0 / ip_ratio=1.40 / pb_ratio=1.30 / aq=2:0.80
Язык : English
Default : Да
Forced : Нет
Аудио #1
Идентификатор : 2
Формат : AC-3
Формат/Информация : Audio Coding 3
Расширение режима : CM (complete main)
Параметр Endianness формата : Big
Идентификатор кодека : A_AC3
Продолжительность : 1 ч. 52 м.
Вид битрейта : Постоянный
Битрейт : 448 Кбит/сек
Каналы : 6 каналов
Расположение каналов : Front: L C R, Side: L R, LFE
Частота : 48,0 КГц
Метод сжатия : С потерями
Размер потока : 359 Мбайт (3%)
Заголовок : Дубляж + многоголосый, AC3 5.1, 448 kbps
Язык : Russian
Default : Да
Forced : Нет
Аудио #2
Идентификатор : 3
Формат : DTS
Формат/Информация : Digital Theater Systems
Режим : 16
Параметр Endianness формата : Big
Идентификатор кодека : A_DTS
Продолжительность : 1 ч. 52 м.
Вид битрейта : Постоянный
Битрейт : 1509 Кбит/сек
Каналы : 6 каналов
Расположение каналов : Front: L C R, Side: L R, LFE
Частота : 48,0 КГц
Битовая глубина : 16 бит
Метод сжатия : С потерями
Размер потока : 1,18 Гбайт (10%)
Заголовок : Многоголосый (Сонотек), DTS 5.1, 1536 kbps
Язык : Russian
Default : Нет
Forced : Нет
Аудио #3
Идентификатор : 4
Формат : DTS
Формат/Информация : Digital Theater Systems
Режим : 16
Параметр Endianness формата : Big
Идентификатор кодека : A_DTS
Продолжительность : 1 ч. 52 м.
Вид битрейта : Постоянный
Битрейт : 1509 Кбит/сек
Каналы : 6 каналов
Расположение каналов : Front: L C R, Side: L R, LFE
Частота : 48,0 КГц
Битовая глубина : 16 бит
Метод сжатия : С потерями
Размер потока : 1,18 Гбайт (10%)
Заголовок : Живов, DTS 5.1, 1536 kbps
Язык : Russian
Default : Нет
Forced : Нет
Аудио #4
Идентификатор : 5
Формат : DTS
Формат/Информация : Digital Theater Systems
Режим : 16
Параметр Endianness формата : Big
Идентификатор кодека : A_DTS
Продолжительность : 1 ч. 52 м.
Вид битрейта : Постоянный
Битрейт : 1509 Кбит/сек
Каналы : 6 каналов
Расположение каналов : Front: L C R, Side: L R, LFE
Частота : 48,0 КГц
Битовая глубина : 24 бит
Метод сжатия : С потерями
Размер потока : 1,18 Гбайт (10%)
Заголовок : DTS 5.1, 1536 kbps
Язык : English
Default : Нет
Forced : Нет
Текст #1
Идентификатор : 6
Формат : UTF-8
Идентификатор кодека : S_TEXT/UTF8
Идентификатор кодека/Информация : UTF-8 Plain Text
Язык : Russian
Default : Нет
Forced : Нет
Текст #2
Идентификатор : 7
Формат : UTF-8
Идентификатор кодека : S_TEXT/UTF8
Идентификатор кодека/Информация : UTF-8 Plain Text
Язык : English
Default : Нет
Forced : Нет
Меню
00:00:00.000 : en:Credits/The Party
00:03:39.760 : en:35 Year Lock
00:08:09.113 : en:Just Like Home
00:12:36.255 : en:Life Above
00:20:34.942 : en:Happy Birthday
00:23:26.445 : en:Just Open The Door And Go Up
00:25:31.071 : en:I Come In Peace
00:29:38.693 : en:Beware The Adult Bookstore
00:34:34.989 : en:Adam Meets The Mutants
00:39:07.178 : en:Grocery Shopping
00:41:17.391 : en:Adam Encounters Eve
00:47:15.248 : en:Welcome To The Holiday Inn
00:52:50.375 : en:Eve For Hire
00:53:59.569 : en:Two Weeks To A Non-Mutant Wife
00:57:31.364 : en:Bringing Home Adam
01:03:00.777 : en:Getting Up-to-Date
01:05:08.029 : en:You Have To See It To Understand
01:09:28.539 : en:Wife Hunting
01:19:38.148 : en:Adam Tells The Scary Truth
01:28:18.584 : en:Off To The Funny Farm
01:33:00.241 : en:Searching For Mr. Polite
01:40:17.553 : en:Rebuilding
01:43:10.601 : en:The New House
01:47:27.566 : en:End Credits
Скачать

Скачать торрент!

Как скачивать? · Что такое торрент? · Рейтинг и ограничения

Сайт не распространяет и не хранит электронные версии произведений, а лишь предоставляет доступ к создаваемому пользователями каталогу ссылок на торрент-файлы, которые содержат только списки хеш-сумм

[Профиль] [ЛС]
Показать сообщения:    
Ответить на тему

Текущее время: Сегодня 00:22

Часовой пояс: GMT + 4



Вы не можете начинать темы
Вы не можете отвечать на сообщения
Вы не можете редактировать свои сообщения
Вы не можете удалять свои сообщения
Вы не можете голосовать в опросах
Вы не можете прикреплять файлы к сообщениям
Вы не можете скачивать файлы