Соуни: Пожиратель плоти / Повелитель тьмы / Lord of darkness / Sawney: Flesh of Man (Рикки Вуд / Ricky Wood) [2012, Великобритания, ужасы, BDRip 720p] DVO (2D) + VO (Куролесов) + Original Eng

Ответить на тему
 
Автор Сообщение

user ®

Стаж: 7 лет 7 месяцев

Сообщений: 20008

Пост Пост: #1 от 11-Сен-2015 18:45

[Цитировать]

Соуни: Пожиратель плоти / Повелитель тьмы / Lord of darkness / Sawney: Flesh of Man
Страна: Великобритания
Жанр: ужас
Год выпуска: 2012
Продолжительность: 01:26:33
Перевод 1: Любительский (двухголосый закадровый) 2D
Перевод 2: Одноголосый закадровый Васька Куролесов
Cубтитры: нет
Оригинальная аудиодорожка: английский
Режиссер: Рикки Вуд / Ricky Wood
В ролях: Дэвид Хэймен, Сэмьюэл Вини, Элизабет Браун, Лиза Кэмерон, Линдси Кромар
Описание: Более 500 лет назад, в землях Шотландии, жил один клан. Настолько злой, настолько кровожадный, что они поедали своих жертв. Отец, дочь, сын, внук - разнузданные убийцы. Они жили в тёмной пещере глубоко под землёй, где забили и сожрали больше 1000 человек. Наконец, этих выродков поймали и немедленно казнили без суда. Но один из них выжил...

Сэмпл: http://multi-up.com/1065594
Тип релиза: BDRip 720p
Контейнер: MKV
Видео: MPEG4 Video (H264) 1280x544 4 767 Kbps 25fps
Аудио 1: Dolby AC3 48000Hz 6ch 640Kbps [русский, 2D]
Аудио 2: Dolby AC3 48000Hz stereo 192Kbps [русский, Васька Куролесов]
Аудио 3: Dolby AC3 48000Hz 6ch 640Kbps[английский]
MediaInfo
General
Unique ID : 217046437222248268761653374761977531258 (0xA3499F8F12FF96E893CA545470A44B7A)
Complete name : D:\TORRENTS\Соуни.Пожиратель.плоти.mkv
Format : Matroska
Format version : Version 4 / Version 2
File size : 3.77 GiB
Duration : 1h 26mn
Overall bit rate : 6 240 Kbps
Encoded date : UTC 2015-09-08 13:33:38
Writing application : mkvmerge v8.3.0 ('Over the Horizon') 32bit
Writing library : libebml v1.3.1 + libmatroska v1.4.2
DURATION : 01:26:33.408000000
NUMBER_OF_FRAMES : 162294
NUMBER_OF_BYTES : 415472640
_STATISTICS_WRITING_APP : mkvmerge v8.3.0 ('Over the Horizon') 32bit
_STATISTICS_WRITING_DATE_UTC : 2015-09-08 13:33:38
_STATISTICS_TAGS : BPS DURATION NUMBER_OF_FRAMES NUMBER_OF_BYTES
Video
ID : 1
Format : AVC
Format/Info : Advanced Video Codec
Format profile : High@L4.1
Format settings, CABAC : Yes
Format settings, ReFrames : 5 frames
Codec ID : V_MPEG4/ISO/AVC
Duration : 1h 26mn
Bit rate : 4 767 Kbps
Width : 1 280 pixels
Height : 544 pixels
Display aspect ratio : 2.35:1
Frame rate mode : Constant
Frame rate : 25.000 fps
Color space : YUV
Chroma subsampling : 4:2:0
Bit depth : 8 bits
Scan type : Progressive
Bits/(Pixel*Frame) : 0.274
Stream size : 2.81 GiB (74%)
Writing library : x264 core 133 r2334 a3ac64b
Encoding settings : cabac=1 / ref=5 / deblock=1:0:0 / analyse=0x3:0x133 / me=umh / subme=8 / psy=1 / psy_rd=1.00:0.00 / mixed_ref=1 / me_range=16 / chroma_me=1 / trellis=1 / 8x8dct=1 / cqm=0 / deadzone=21,11 / fast_pskip=0 / chroma_qp_offset=-2 / threads=12 / lookahead_threads=2 / sliced_threads=0 / nr=0 / decimate=1 / interlaced=0 / bluray_compat=0 / constrained_intra=0 / bframes=3 / b_pyramid=2 / b_adapt=1 / b_bias=0 / direct=1 / weightb=1 / open_gop=0 / weightp=2 / keyint=250 / keyint_min=25 / scenecut=40 / intra_refresh=0 / rc_lookahead=40 / rc=2pass / mbtree=1 / bitrate=4767 / ratetol=1.0 / qcomp=0.60 / qpmin=0 / qpmax=69 / qpstep=4 / cplxblur=20.0 / qblur=0.5 / ip_ratio=1.40 / aq=1:1.00
Language : English
Default : Yes
Forced : No
DURATION : 01:26:33.440000000
NUMBER_OF_FRAMES : 129836
NUMBER_OF_BYTES : 3094444954
_STATISTICS_WRITING_APP : mkvmerge v8.3.0 ('Over the Horizon') 32bit
_STATISTICS_WRITING_DATE_UTC : 2015-09-08 13:33:38
_STATISTICS_TAGS : BPS DURATION NUMBER_OF_FRAMES NUMBER_OF_BYTES
Audio #1
ID : 2
Format : AC-3
Format/Info : Audio Coding 3
Mode extension : CM (complete main)
Format settings, Endianness : Big
Codec ID : A_AC3
Duration : 1h 26mn
Bit rate mode : Constant
Bit rate : 640 Kbps
Channel(s) : 6 channels
Channel positions : Front: L C R, Side: L R, LFE
Sampling rate : 48.0 KHz
Compression mode : Lossy
Stream size : 396 MiB (10%)
Title : 2D
Language : Russian
Default : Yes
Forced : Yes
Audio #2
ID : 3
Format : AC-3
Format/Info : Audio Coding 3
Mode extension : CM (complete main)
Format settings, Endianness : Big
Codec ID : A_AC3
Duration : 1h 26mn
Bit rate mode : Constant
Bit rate : 192 Kbps
Channel(s) : 2 channels
Channel positions : Front: L R
Sampling rate : 48.0 KHz
Compression mode : Lossy
Stream size : 119 MiB (3%)
Title : Vaska Kurolesov
Language : Russian
Default : No
Forced : No
Audio #3
ID : 4
Format : AC-3
Format/Info : Audio Coding 3
Mode extension : CM (complete main)
Format settings, Endianness : Big
Codec ID : A_AC3
Duration : 1h 26mn
Bit rate mode : Constant
Bit rate : 640 Kbps
Channel(s) : 6 channels
Channel positions : Front: L C R, Side: L R, LFE
Sampling rate : 48.0 KHz
Compression mode : Lossy
Stream size : 396 MiB (10%)
Title : Original
Language : English
Default : No
Forced : No
Скриншоты
Скачать

Скачать торрент!

Как скачивать? · Что такое торрент? · Рейтинг и ограничения

Сайт не распространяет и не хранит электронные версии произведений, а лишь предоставляет доступ к создаваемому пользователями каталогу ссылок на торрент-файлы, которые содержат только списки хеш-сумм

[Профиль] [ЛС]
Показать сообщения:    
Ответить на тему

Текущее время: Сегодня 20:32

Часовой пояс: GMT + 4



Вы не можете начинать темы
Вы не можете отвечать на сообщения
Вы не можете редактировать свои сообщения
Вы не можете удалять свои сообщения
Вы не можете голосовать в опросах
Вы не можете прикреплять файлы к сообщениям
Вы не можете скачивать файлы