Портной из Панамы / The Tailor of Panama (Джон Бурмен / John Boorman) [2001, США, Ирландия, триллер, драма, BDRip 1080p] MVO + AVO (Визгунов) + VO (Гланц) + Original Eng + Sub (Rus, Eng)

Ответить на тему
 
Автор Сообщение

user ®

Стаж: 7 лет 7 месяцев

Сообщений: 20008

Пост Пост: #1 от 11-Сен-2015 18:45

[Цитировать]

Портной из Панамы / The Tailor of Panama- Год выпуска: 2001
Выпущено: США, Ирландия
Жанр: триллер, драма
Продолжительность: 01:49:38
Перевод: Профессиональный (многоголосый, закадровый)
+ Студийный (одноголосый, закадровый) П.Гланц
+ Авторский одноголосый С.Визгунов
Оригинальная звуковая дорожка: English
Субтитры: Russian, English-Режиссер: Джон Бурмен / John Boorman
В ролях: Пирс Броснан, Джеффри Раш, Джейми Ли Кёртис, Леонор Варела, Брендан Глисон, Гарольд Пинтер, Катрин МакКормак, Дэниэл Рэдклифф, Лола Бурман, Дэвид Хеймен
О фильме: Секретный агент Британской разведки Энди Оснард подвержен двум неизменным страстям своей опасной профессии – одержимостью риском и чужими женами. На этот раз ему предстоит большая игра: он оказывается в центре политической интриги вокруг судьбы Панамского канала. Его орудие – престижный портной Гарри Перидел, чья элитная клиентура может дать разведчику бесценные сведения. Другой пламенной страсти – к женщине – в новом деле отводится не последняя роль.-SbR!
Релиз:
Формат: MKV
Видео: 1920x816 at 23.976 fps, x264, ~17282 kbps avg
Аудио #01: Russian: 48 kHz, AC3, 3/2 (L,C,R,l,r) + LFE ch, ~448 kbps avg |Многоголосый закадровый|
Аудио #02: Russian: 48 kHz, DTS 5.1, ~1509 kbps avg |Одноголосый закадровый, П. Гланц|
Аудио #03: Russian: 48 kHz, DTS 5.1, ~1509 kbps avg |Одноголосый закадровый, С. Визгунов|
Аудио #04: English: 48 kHz, DTS 5.1, ~1509 kbps avg
Аудио #05: English: 48 kHz, AC3, 2/0 (L,R) ch, ~256 kbps avg |Commentary with Director John Boorman|
Семпл-Source vs Encode
-
mInfo
Формат : Matroska
Версия формата : Version 4 / Version 2
Размер файла : 17,2 Гбайт
Продолжительность : 1 ч. 49 м.
Общий поток : 22,5 Мбит/сек
Название фильма : The Tailor of Panama (2001) - Encode by SbR
Дата кодирования : UTC 2015-09-02 07:37:01
Программа кодирования : mkvmerge v8.3.0 ('Over the Horizon') 64bit
Библиотека кодирования : libebml v1.3.1 + libmatroska v1.4.2
Attachements : cover.jpg / xlog.txt
Видео
Идентификатор : 1
Формат : AVC
Формат/Информация : Advanced Video Codec
Профиль формата : High@L4.1
Параметр CABAC формата : Да
Параметр ReFrames формата : 5 кадров
Идентификатор кодека : V_MPEG4/ISO/AVC
Продолжительность : 1 ч. 49 м.
Битрейт : 16,8 Мбит/сек
Ширина : 1920 пикселей
Высота : 816 пикселей
Соотношение сторон : 2,35:1
Режим частоты кадров : Постоянный
Частота кадров : 23,976 кадра/сек
Цветовое пространство : YUV
Субдискретизация насыщенности : 4:2:0
Битовая глубина : 8 бит
Тип развёртки : Прогрессивная
Бит/(Пиксели*Кадры) : 0.448
Размер потока : 12,9 Гбайт (75%)
Заголовок : Release for HDCLUB
Библиотека кодирования : x264 core 148 r2597kMod e86f3a1
Настройки программы : cabac=1 / ref=5 / deblock=1:-2:-2 / analyse=0x3:0x133 / me=umh / subme=11 / psy=1 / fade_compensate=0.00 / psy_rd=1.00:0.00 / mixed_ref=1 / me_range=32 / chroma_me=1 / trellis=2 / 8x8dct=1 / cqm=0 / deadzone=21,11 / fast_pskip=1 / chroma_qp_offset=-2 / threads=12 / lookahead_threads=2 / sliced_threads=0 / nr=0 / decimate=1 / interlaced=0 / bluray_compat=0 / constrained_intra=0 / fgo=0 / bframes=8 / b_pyramid=2 / b_adapt=2 / b_bias=0 / direct=1 / weightb=1 / open_gop=0 / weightp=2 / keyint=250 / keyint_min=23 / scenecut=40 / intra_refresh=0 / rc_lookahead=60 / rc=crf / mbtree=0 / crf=17.7000 / qcomp=0.70 / qpmin=0 / qpmax=69 / qpstep=4 / vbv_maxrate=62500 / vbv_bufsize=78125 / crf_max=0.0 / nal_hrd=none / filler=0 / ip_ratio=1.40 / pb_ratio=1.30 / aq=1:0.80
Язык : English
Default : Да
Forced : Нет
Основные цвета : BT.709
Характеристики трансфера : BT.709
Коэффициенты матрицы : BT.709
colour_range : Limited
Аудио #1
Идентификатор : 2
Формат : AC-3
Формат/Информация : Audio Coding 3
Расширение режима : CM (complete main)
Параметр Endianness формата : Big
Идентификатор кодека : A_AC3
Продолжительность : 1 ч. 49 м.
Вид битрейта : Постоянный
Битрейт : 448 Кбит/сек
Каналы : 6 каналов
Расположение каналов : Front: L C R, Side: L R, LFE
Частота : 48,0 КГц
Битовая глубина : 16 бит
Метод сжатия : С потерями
Размер потока : 351 Мбайт (2%)
Заголовок : Многоголосый
Язык : Russian
Default : Да
Forced : Нет
Аудио #2
Идентификатор : 3
Формат : DTS
Формат/Информация : Digital Theater Systems
Режим : 16
Параметр Endianness формата : Big
Идентификатор кодека : A_DTS
Продолжительность : 1 ч. 49 м.
Вид битрейта : Постоянный
Битрейт : 1509 Кбит/сек
Каналы : 6 каналов
Расположение каналов : Front: L C R, Side: L R, LFE
Частота : 48,0 КГц
Битовая глубина : 16 бит
Метод сжатия : С потерями
Размер потока : 1,16 Гбайт (7%)
Заголовок : Гланц
Язык : Russian
Default : Нет
Forced : Нет
Аудио #3
Идентификатор : 4
Формат : DTS
Формат/Информация : Digital Theater Systems
Режим : 16
Параметр Endianness формата : Big
Идентификатор кодека : A_DTS
Продолжительность : 1 ч. 49 м.
Вид битрейта : Постоянный
Битрейт : 1509 Кбит/сек
Каналы : 6 каналов
Расположение каналов : Front: L C R, Side: L R, LFE
Частота : 48,0 КГц
Битовая глубина : 16 бит
Метод сжатия : С потерями
Размер потока : 1,16 Гбайт (7%)
Заголовок : Визгунов
Язык : Russian
Default : Нет
Forced : Нет
Аудио #4
Идентификатор : 5
Формат : DTS
Формат/Информация : Digital Theater Systems
Режим : 16
Параметр Endianness формата : Big
Идентификатор кодека : A_DTS
Продолжительность : 1 ч. 49 м.
Вид битрейта : Постоянный
Битрейт : 1509 Кбит/сек
Каналы : 6 каналов
Расположение каналов : Front: L C R, Side: L R, LFE
Частота : 48,0 КГц
Битовая глубина : 16 бит
Метод сжатия : С потерями
Размер потока : 1,16 Гбайт (7%)
Язык : English
Default : Нет
Forced : Нет
Аудио #5
Идентификатор : 6
Формат : AC-3
Формат/Информация : Audio Coding 3
Профиль формата : Dolby Digital
Расширение режима : CM (complete main)
Параметр Endianness формата : Big
Идентификатор кодека : A_AC3
Продолжительность : 1 ч. 49 м.
Вид битрейта : Постоянный
Битрейт : 256 Кбит/сек
Каналы : 2 канала
Расположение каналов : Front: L R
Частота : 48,0 КГц
Битовая глубина : 16 бит
Метод сжатия : С потерями
Размер потока : 201 Мбайт (1%)
Заголовок : Commentary with Director John Boorman
Язык : English
Default : Нет
Forced : Нет
Текст #1
Идентификатор : 7
Формат : UTF-8
Идентификатор кодека : S_TEXT/UTF8
Идентификатор кодека/Информация : UTF-8 Plain Text
Язык : Russian
Default : Нет
Forced : Нет
Текст #2
Идентификатор : 8
Формат : UTF-8
Идентификатор кодека : S_TEXT/UTF8
Идентификатор кодека/Информация : UTF-8 Plain Text
Язык : English
Default : Нет
Forced : Нет
Меню
00:00:00.000 : en:Chapter 1
00:07:44.172 : en:Chapter 2
00:14:44.300 : en:Chapter 3
00:20:01.909 : en:Chapter 4
00:29:56.795 : en:Chapter 5
00:33:22.083 : en:Chapter 6
00:42:03.604 : en:Chapter 7
00:48:42.169 : en:Chapter 8
00:51:30.921 : en:Chapter 9
00:57:08.925 : en:Chapter 10
01:05:21.959 : en:Chapter 11
01:14:25.502 : en:Chapter 12
01:20:41.044 : en:Chapter 13
01:26:49.203 : en:Chapter 14
01:33:49.749 : en:Chapter 15
01:41:53.774 : en:Chapter 16
-
Скачать

Скачать торрент!

Как скачивать? · Что такое торрент? · Рейтинг и ограничения

Сайт не распространяет и не хранит электронные версии произведений, а лишь предоставляет доступ к создаваемому пользователями каталогу ссылок на торрент-файлы, которые содержат только списки хеш-сумм

[Профиль] [ЛС]
Показать сообщения:    
Ответить на тему

Текущее время: Сегодня 11:59

Часовой пояс: GMT + 4



Вы не можете начинать темы
Вы не можете отвечать на сообщения
Вы не можете редактировать свои сообщения
Вы не можете удалять свои сообщения
Вы не можете голосовать в опросах
Вы не можете прикреплять файлы к сообщениям
Вы не можете скачивать файлы