Баскетбольная лихорадка / Celtic Pride (Том ДеСерчио / Tom DeCerchio) [1996, США, комедия, спорт, WEB-DL 720p] MVO + Sub Eng + Original Eng

Ответить на тему
 
Автор Сообщение

user ®

Стаж: 7 лет 7 месяцев

Сообщений: 20008

Пост Пост: #1 от 11-Сен-2015 15:39

[Цитировать]

Баскетбольная лихорадка / Celtic Pride
Страна: США
Студия: Caravan Pictures, Hollywood Pictures
Жанр: комедия, спорт
Год выпуска: 1996
Продолжительность: 01:30:35
Перевод: Профессиональный (многоголосый закадровый) с VHS
Cубтитры: английские
Оригинальная аудиодорожка: английский
Режиссер: Том ДеСерчио / Tom DeCerchio
В ролях: Дэймон Уайанс, Дэниел Стерн, Дэн Эйкройд, Гэйл О’Грэйди, Кристофер МакДональд, Пол Гилфойл, Адам Хендершотт, Скотт Лоуренс, Дион Сандерс, Билл Уолтон…
Описание: На что можно решиться ради победы любимой команды? "На все!" - решают Майк и Джимми накануне финального матча между их любимой "Бостон Селтик" и "Юта Джаз". Они идут на отчаянный шаг и похищают лучшего игрока соперников, Льюиса Скотта, напоив его в баре до полусмерти. Но все идет совсем не так, как они задумали...
II Сэмпл II IMDB II
Тип релиза: WEB-DL 720p
Контейнер: MKV
Видео: AVC / 1280x690 / 1.85:1 / 23.976fps / Bit rate 3916Kbps
Аудио 1: AC3 / 48.0 KHz / 2ch. / 192kbps / rus / mvo
Аудио 2: AC3 / 48.0 KHz / 6ch. / 384kbps / eng
Формат субтитров: softsub (SRT)
MediaInfo
Общее
Уникальный идентификатор : 243845370240980221637346006112205409692 (0xB772E8F80939D8689F30F31AD8120D9C)
Полное имя : G:\!!!_torrent\Celtic.Pride.1996.WEB-DL.720p_by_vedigo .mkv
Формат : Matroska
Версия формата : Version 4 / Version 2
Размер файла : 2,90 Гбайт
Продолжительность : 1 ч. 30 м.
Общий поток : 4583 Кбит/сек
Название фильма : Celtic.Pride.1996.WEB-DL.720p_by_vedigo
Дата кодирования : UTC 2015-09-08 05:37:09
Программа кодирования : mkvmerge v8.3.0 ('Over the Horizon') 64bit
Библиотека кодирования : libebml v1.3.1 + libmatroska v1.4.2
DURATION : 01:30:02.489000000
NUMBER_OF_FRAMES : 2122
NUMBER_OF_BYTES : 59624
_STATISTICS_WRITING_APP : mkvmerge v8.3.0 ('Over the Horizon') 64bit
_STATISTICS_WRITING_DATE_UTC : 2015-09-08 05:37:09
_STATISTICS_TAGS : BPS DURATION NUMBER_OF_FRAMES NUMBER_OF_BYTES
Видео
Идентификатор : 1
Формат : AVC
Формат/Информация : Advanced Video Codec
Профиль формата : High@L3.1
Параметр CABAC формата : Нет
Параметр ReFrames формата : 2 кадра
Идентификатор кодека : V_MPEG4/ISO/AVC
Продолжительность : 1 ч. 30 м.
Битрейт : 3916 Кбит/сек
Ширина : 1280 пикселей
Высота : 690 пикселей
Соотношение сторон : 1,85:1
Режим частоты кадров : Постоянный
Частота кадров : 23,976 кадра/сек
Цветовое пространство : YUV
Субдискретизация насыщенности : 4:2:0
Битовая глубина : 8 бит
Тип развёртки : Прогрессивная
Бит/(Пиксели*Кадры) : 0.185
Размер потока : 2,48 Гбайт (85%)
Заголовок : Celtic.Pride.1996.WEB-DL.720p_by_vedigo
Default : Да
Forced : Нет
Цветовой диапазон : Limited
Основные цвета : BT.709
Характеристики трансфера : BT.709
Коэффициенты матрицы : BT.709
Аудио #1
Идентификатор : 2
Формат : AC-3
Формат/Информация : Audio Coding 3
Расширение режима : CM (complete main)
Параметр Endianness формата : Big
Идентификатор кодека : A_AC3
Продолжительность : 1 ч. 30 м.
Вид битрейта : Постоянный
Битрейт : 192 Кбит/сек
Каналы : 2 канала
Расположение каналов : Front: L R
Частота : 48,0 КГц
Метод сжатия : С потерями
Размер потока : 124 Мбайт (4%)
Заголовок : MVO @ VHS
Язык : Russian
Default : Да
Forced : Нет
Аудио #2
Идентификатор : 3
Формат : AC-3
Формат/Информация : Audio Coding 3
Расширение режима : CM (complete main)
Параметр Endianness формата : Big
Идентификатор кодека : A_AC3
Продолжительность : 1 ч. 30 м.
Вид битрейта : Постоянный
Битрейт : 384 Кбит/сек
Каналы : 6 каналов
Расположение каналов : Front: L C R, Side: L R, LFE
Частота : 48,0 КГц
Метод сжатия : С потерями
Размер потока : 249 Мбайт (8%)
Заголовок : original
Язык : English
Default : Нет
Forced : Нет
Текст
Идентификатор : 4
Формат : UTF-8
Идентификатор кодека : S_TEXT/UTF8
Идентификатор кодека/Информация : UTF-8 Plain Text
Заголовок : subtitle eng
Язык : English
Default : Нет
Forced : Нет
Скриншоты
Скачать

Скачать торрент!

Как скачивать? · Что такое торрент? · Рейтинг и ограничения

Сайт не распространяет и не хранит электронные версии произведений, а лишь предоставляет доступ к создаваемому пользователями каталогу ссылок на торрент-файлы, которые содержат только списки хеш-сумм

[Профиль] [ЛС]
Показать сообщения:    
Ответить на тему

Текущее время: Сегодня 20:38

Часовой пояс: GMT + 4



Вы не можете начинать темы
Вы не можете отвечать на сообщения
Вы не можете редактировать свои сообщения
Вы не можете удалять свои сообщения
Вы не можете голосовать в опросах
Вы не можете прикреплять файлы к сообщениям
Вы не можете скачивать файлы