Отель «Де Сад» / Hotel de Sade (Оман Дхас / Oman Dhas) [2013, Сингапур, Китай, Малайзия, ужасы, триллер, драма, DVDRip] VO (Васька Куролесов)

Ответить на тему
 
Автор Сообщение

user ®

Стаж: 13 лет

Сообщений: 15071

Пост Пост: #1 от 11-Сен-2015 00:12

[Цитировать]

Отель «Де Сад» / Hotel de Sade
Страна: Сингапур, Китай, Малайзия
Жанр: ужасы, триллер, драма
Год выпуска: 2013
Продолжительность: 01:40:25
Перевод: Одноголосый закадровый Васька Куролесов по субтитрам МЕГАПЫХАРЬ
Cубтитры: нет
Режиссер: Оман Дхас / Oman Dhas
В ролях: Фиш Саар, Лаура Ки, Уильям Лаванди, Джоан-Мари Сим, Найджел Тан, Дебра Тенг
Описание: Эрик думал, что он убил свою дочь вместо того, чтобы спасти ее от похитителей. Это приводит его в Китай, где он ищет утешение в боли и крови в отеле «Рай», в котором удовлетворяют любые плотские и непристойные желания.

Семпл
Качество видео: DVDRip
Формат видео: AVI
Видео: 720x400; ~1 798 Kbps kbps; 23.976 fps;
Аудио: AC-3; ~192 kbps, 48000Hz, 2 ch
Релиз от:
MediaInfo
General
Complete name : G:\Hotel.de.Sade.2013.German_KypoJIecoB.avi
Format : AVI
Format/Info : Audio Video Interleave
File size : 1.40 GiB
Duration : 1h 40mn
Overall bit rate : 2 000 Kbps
Writing application : VirtualDubMod 1.5.10.2 (build 2540/release)
Writing library : VirtualDubMod build 2540/release
Video
ID : 0
Format : MPEG-4 Visual
Format profile : Advanced Simple@L5
Format settings, BVOP : 2
Format settings, QPel : No
Format settings, GMC : No warppoints
Format settings, Matrix : Default (H.263)
Codec ID : XVID
Codec ID/Hint : XviD
Duration : 1h 40mn
Bit rate : 1 798 Kbps
Width : 720 pixels
Height : 400 pixels
Display aspect ratio : 16:9
Frame rate : 23.976 fps
Color space : YUV
Chroma subsampling : 4:2:0
Bit depth : 8 bits
Scan type : Progressive
Compression mode : Lossy
Bits/(Pixel*Frame) : 0.260
Stream size : 1.26 GiB (90%)
Writing library : XviD 67
Audio
ID : 1
Format : AC-3
Format/Info : Audio Coding 3
Mode extension : CM (complete main)
Format settings, Endianness : Big
Codec ID : 2000
Duration : 1h 40mn
Bit rate mode : Constant
Bit rate : 192 Kbps
Channel(s) : 2 channels
Channel positions : Front: L R
Sampling rate : 48.0 KHz
Compression mode : Lossy
Stream size : 138 MiB (10%)
Alignment : Split accross interleaves
Interleave, duration : 42 ms (1.00 video frame)
Interleave, preload duration : 500 ms
Скриншот c названием фильма Скриншоты
Скачать

Скачать торрент! Отель «Де Сад» / Hotel de Sade (Оман Дхас / Oman Dhas) [2013, Сингапур, Китай, Малайзия, ужасы, триллер, драма, DVDRip] VO (Васька Куролесов)

Как скачивать? · Что такое торрент? · Рейтинг и ограничения

Сайт не распространяет и не хранит электронные версии произведений, а лишь предоставляет доступ к создаваемому пользователями каталогу ссылок на торрент-файлы, которые содержат только списки хеш-сумм

[Профиль] [ЛС]
Показать сообщения:    
Ответить на тему

Текущее время: Сегодня 21:36

Часовой пояс: GMT + 4



Вы не можете начинать темы
Вы не можете отвечать на сообщения
Вы не можете редактировать свои сообщения
Вы не можете удалять свои сообщения
Вы не можете голосовать в опросах
Вы не можете прикреплять файлы к сообщениям
Вы не можете скачивать файлы