Борьба за сокровища / Daulat Ki Jung (С. Эй. Кадер / S.A. Kader) [1992, Индия, Боевик, мелодрама, приключения, DVDRip] Sub Rus (jyoti)

Ответить на тему
 
Автор Сообщение

user ®

Стаж: 12 лет

Сообщений: 15092

Пост Пост: #1 от 11-Сен-2015 00:12

[Цитировать]

Борьба за сокровища / Daulat Ki Jung
Страна: Индия
Жанр: Боевик, мелодрама, приключения
Год выпуска: 1992
Продолжительность: 02:30:11
Перевод: Субтитры Jyoti
Cубтитры: русские
Оригинальная аудиодорожка: хинди
Режиссер: С. Эй. Кадер / S.A. Kader
В ролях: Аамир Кхан, Джухи Чавла, Шафи Инамдар, Тику Талсания, Пареш Раваль, Кадер Кхан, Киран Кумар, Далип Тахил, Бирбал, Читра Дешмукх
Описание: Кто из нас хотя бы раз в детстве не мечтал сбежать из дома? Юные влюбленные Радж и Аша так и делают, ведь их отцы терпеть друг друга не могут. Но менее всего парочка ожидала, что раненый мужчина, которого они подберут на дороге и повезут в больницу, вовлечет их в полную приключений борьбу за старинные сокровища, а хлеб и кров с ними будут делить настоящие бандиты, считающие, что в этой борьбе, как в войне, все средства хороши.
Доп. информация:
Перевод, редакция: Jyoti (Спасибо!)
В видеоряде присутствуют рекламные надписи.
Сэмпл: http://multi-up.com/1065395
Качество видео: DVDRip
Формат видео: AVI
Видео: XviD build 50, 640x400 (1.60:1), 23.976 fps, 1485 kbps avg
Аудио: Hindi AC3 Dolby Digital, 48 kHz, 3/2 (L,C,R,l,r) + LFE ch, 448 kbps
Формат субтитров: hardsub (неотключаемые)
Доп. информация о субтитрах: Автор: Jyoti
MediaInfo
General
Complete name : F:\Borba.Za.Sokrovisha.1992.DVDRip.XviD.BwTorrents.avi
Format : AVI
Format/Info : Audio Video Interleave
Format profile : OpenDML
File size : 2.04 GiB
Duration : 2h 30mn
Overall bit rate : 1 940 Kbps
Movie name : Borba.Za.Sokrovisha.1992.DVDRip.XviD.BwTorrents
Writing application : VirtualDubMod 1.5.10.3 | www.virtualdub-fr.org || (build 2550/release)
Video
ID : 0
Format : MPEG-4 Visual
Format profile : AdvancedSimple@L5
Format settings, BVOP : Yes
Format settings, QPel : No
Format settings, GMC : No warppoints
Format settings, Matrix : Default (MPEG)
Codec ID : XVID
Codec ID/Hint : XviD
Duration : 2h 30mn
Bit rate : 1 480 Kbps
Width : 640 pixels
Height : 400 pixels
Display aspect ratio : 1.600
Frame rate : 23.976 fps
Resolution : 24 bits
Colorimetry : 4:2:0
Scan type : Progressive
Bits/(Pixel*Frame) : 0.241
Stream size : 1.55 GiB (76%)
Writing library : XviD 1.2.1 (UTC 2008-12-04)
Audio
ID : 1
Format : AC-3
Format/Info : Audio Coding 3
Codec ID : 2000
Duration : 2h 30mn
Bit rate mode : Constant
Bit rate : 448 Kbps
Channel(s) : 6 channels
Channel positions : Front: L C R, Surround: L R, LFE
Sampling rate : 48.0 KHz
Stream size : 481 MiB (23%)
Alignment : Split accross interleaves
Interleave, duration : 42 ms (1.00 video frame)
Interleave, preload duration : 500 ms
Скриншоты
Скачать

Скачать торрент! Борьба за сокровища / Daulat Ki Jung (С. Эй. Кадер / S.A. Kader) [1992, Индия, Боевик, мелодрама, приключения, DVDRip] Sub Rus (jyoti)

Как скачивать? · Что такое торрент? · Рейтинг и ограничения

Сайт не распространяет и не хранит электронные версии произведений, а лишь предоставляет доступ к создаваемому пользователями каталогу ссылок на торрент-файлы, которые содержат только списки хеш-сумм

[Профиль] [ЛС]
Показать сообщения:    
Ответить на тему

Текущее время: Сегодня 13:08

Часовой пояс: GMT + 4



Вы не можете начинать темы
Вы не можете отвечать на сообщения
Вы не можете редактировать свои сообщения
Вы не можете удалять свои сообщения
Вы не можете голосовать в опросах
Вы не можете прикреплять файлы к сообщениям
Вы не можете скачивать файлы