Земля отцов / Мадрас Кафе / Кафе «Мадрас» / Madras Cafe (Шуджит Сиркар / Shoojit Sircar) [2013, Индия, Боевик, триллер, драма, военный, HDRip] MVO (SDI Media)

Ответить на тему
 
Автор Сообщение

user ®

Стаж: 12 лет

Сообщений: 15092

Пост Пост: #1 от 11-Сен-2015 00:12

[Цитировать]

Земля отцов / Мадрас Кафе / Кафе «Мадрас» / Madras Cafe
Страна: Индия
Жанр: Боевик, триллер, драма, военный
Год выпуска: 2013
Продолжительность: 02:07:24
Перевод: Профессиональный (многоголосый закадровый) SDI Media
Cубтитры: нет
Режиссер: Шуджит Сиркар / Shoojit Sircar
В ролях: Джон Абрахам, Наргис Факхри, Раши Кханна, Авийит Датт, Лина Мария Паул, Пракаш Белавади, Сиддартха Басу, Эджей Ратнам, Каннан Аруначалам, Дибанг
Описание: Действие фильма разворачивается в Индии и Шри-Ланке, это политический шпионский триллер на фоне гражданской войны. Главный герой — Викрам Сингх — офицер индийской армии, который назначается отделом исследований и анализа разведывательного управления на должность руководителя тайными операциями в Джаффне вскоре после того, как индийские миротворческие силы были вынуждены отступить. По мере его продвижения в Шри-Ланку с намерением подавить мятежников он запутывается в повстанческой и военной политике. Там он встречает британскую журналистку Джаю Сахни, которая хочет рассказать правду о гражданской войне.
Доп. информация: Исходник: BDRip (1080p)
Сведение звука: oktober (Спасибо!)
Сэмпл: http://multi-up.com/1065436
Качество видео: HDRip
Формат видео: AVI
Видео: XviD build 50, 720x304 (2.37:1), 24.000 fps, 1438 kbps avg
Аудио: AC3 Dolby Digital, 48 kHz, 2/0 (L,R) ch, 192 kbps
MediaInfo
General
Complete name : F:\Zemlya.otcov.2013.XviD.HDRip-Dego.avi
Format : AVI
Format/Info : Audio Video Interleave
File size : 1.46 GiB
Duration : 2h 7mn
Overall bit rate : 1 640 Kbps
Writing application : VirtualDubMod 1.5.10.2 (build 2540/release)
Writing library : VirtualDubMod build 2540/release
Video
ID : 0
Format : MPEG-4 Visual
Format profile : AdvancedSimple@L5
Format settings, BVOP : Yes
Format settings, QPel : No
Format settings, GMC : No warppoints
Format settings, Matrix : Custom
Codec ID : XVID
Codec ID/Hint : XviD
Duration : 2h 7mn
Bit rate : 1 438 Kbps
Width : 720 pixels
Height : 304 pixels
Display aspect ratio : 2.35
Frame rate : 24.000 fps
Resolution : 24 bits
Colorimetry : 4:2:0
Scan type : Progressive
Bits/(Pixel*Frame) : 0.274
Stream size : 1.28 GiB (88%)
Writing library : XviD 1.2.1 (UTC 2008-12-04)
Audio
ID : 1
Format : AC-3
Format/Info : Audio Coding 3
Codec ID : 2000
Duration : 2h 7mn
Bit rate mode : Constant
Bit rate : 192 Kbps
Channel(s) : 2 channels
Channel positions : L R
Sampling rate : 48.0 KHz
Stream size : 175 MiB (12%)
Alignment : Split accross interleaves
Interleave, duration : 42 ms (1.00 video frame)
Interleave, preload duration : 500 ms
Скриншот c названием фильма Скриншоты
Скачать

Скачать торрент! Земля отцов / Мадрас Кафе / Кафе «Мадрас» / Madras Cafe (Шуджит Сиркар / Shoojit Sircar) [2013, Индия, Боевик, триллер, драма, военный, HDRip] MVO (SDI Media)

Как скачивать? · Что такое торрент? · Рейтинг и ограничения

Сайт не распространяет и не хранит электронные версии произведений, а лишь предоставляет доступ к создаваемому пользователями каталогу ссылок на торрент-файлы, которые содержат только списки хеш-сумм

[Профиль] [ЛС]
Показать сообщения:    
Ответить на тему

Текущее время: Сегодня 18:33

Часовой пояс: GMT + 4



Вы не можете начинать темы
Вы не можете отвечать на сообщения
Вы не можете редактировать свои сообщения
Вы не можете удалять свои сообщения
Вы не можете голосовать в опросах
Вы не можете прикреплять файлы к сообщениям
Вы не можете скачивать файлы