Мир Юрского периода / Jurassic World (Колин Треворроу / Colin Trevorrow) [2015, США, Фантастика, приключения, боевик, WEB-DLRip] Dub (iTunes)

Ответить на тему
 
Автор Сообщение

user ®

Стаж: 7 лет 7 месяцев

Сообщений: 20008

Пост Пост: #1 от 11-Сен-2015 00:12

[Цитировать]

Мир Юрского периода / Jurassic World
«Парк откроется»
- Год выхода: 2015
Выпущено: США, Китай / Universal Pictures
Жанр: фантастика, приключения, боевик
Продолжительность: 02:04:21
Перевод: Профессиональный (полное дублирование)
Субтитры: Русские (на надписи, вшиты с исходника)-Режиссер:
Колин Треворроу / Colin Trevorrow-В ролях:
Крис Пратт (Owen), Брайс Даллас Ховард (Claire), Ник Дж. Робинсон (Zach), Тай Симпкинс (Gray), Винсент Д’Онофрио (Hoskins), Ирфан Кхан (Masrani), Омар Си (Barry), Б.Д. Вонг (Dr. Henry Wu), Джейк Джонсон (Lowery), Джуди Грир (Karen), Кэти МакГрат (Zara), Лорен Лапкус (Vivian), Брайан Ти (Hamada), Энди Бакли (Scott)-О фильме:
Тысячи людей спешат увидеть Мир Юрского периода, но безопасное на первый взгляд развлечение может обернуться угрозой для их жизней…-Релиз групп [url=http://***/forum/viewtopic.php?t=1677970] [/url] | | IMDB | КиноПоиск | Сэмпл |-Качество: WEB-DLRip [WEB-DL | 1080p | HDCLUB]
Формат: AVI
Видео: 704x352 (2.00:1), 23.976 fps, XviD build 73 ~2123 kbps avg, 0.36 bit/pixel
Аудио: 48 kHz, AC3 Dolby Digital, 3/2 (L,C,R,l,r) + LFE ch, ~384.00 kbps avg - iTunes Russia
-

Скриншоты MediaInfo
General
Complete name                            : D:\Mir_Urskogo_Perioda_2015_WEB-DLRip_[2.18]_iT_by_Dalemake.avi
Format                                   : AVI
Format/Info                              : Audio Video Interleave
Format profile                           : OpenDML
File size                                : 2.18 GiB
Duration                                 : 2h 4mn
Overall bit rate                         : 2 514 Kbps
Writing application                      : VirtualDubMod 1.5.10.3 | www.virtualdub-fr.org || (build 2550/release)
Writing library                          : VirtualDubMod build 2550/release
Video
ID                                       : 0
Format                                   : MPEG-4 Visual
Format profile                           : Advanced Simple@L5
Format settings, BVOP                    : 1
Format settings, QPel                    : No
Format settings, GMC                     : No warppoints
Format settings, Matrix                  : Custom
Codec ID                                 : XVID
Codec ID/Hint                            : XviD
Duration                                 : 2h 4mn
Bit rate                                 : 2 118 Kbps
Width                                    : 704 pixels
Height                                   : 352 pixels
Display aspect ratio                     : 2.000
Frame rate                               : 23.976 fps
Color space                              : YUV
Chroma subsampling                       : 4:2:0
Bit depth                                : 8 bits
Scan type                                : Progressive
Compression mode                         : Lossy
Bits/(Pixel*Frame)                       : 0.357
Stream size                              : 1.84 GiB (84%)
Writing library                          : XviD 73
Audio
ID                                       : 1
Format                                   : AC-3
Format/Info                              : Audio Coding 3
Mode extension                           : CM (complete main)
Format settings, Endianness              : Big
Codec ID                                 : 2000
Duration                                 : 2h 4mn
Bit rate mode                            : Constant
Bit rate                                 : 384 Kbps
Channel(s)                               : 6 channels
Channel positions                        : Front: L C R, Side: L R, LFE
Sampling rate                            : 48.0 KHz
Bit depth                                : 16 bits
Compression mode                         : Lossy
Stream size                              : 342 MiB (15%)
Alignment                                : Split accross interleaves
Interleave, duration                     : 42 ms (1.00 video frame)
Interleave, preload duration             : 500 ms
-
Скачать

Скачать торрент!

Как скачивать? · Что такое торрент? · Рейтинг и ограничения

Сайт не распространяет и не хранит электронные версии произведений, а лишь предоставляет доступ к создаваемому пользователями каталогу ссылок на торрент-файлы, которые содержат только списки хеш-сумм

[Профиль] [ЛС]
Показать сообщения:    
Ответить на тему

Текущее время: Сегодня 01:47

Часовой пояс: GMT + 4



Вы не можете начинать темы
Вы не можете отвечать на сообщения
Вы не можете редактировать свои сообщения
Вы не можете удалять свои сообщения
Вы не можете голосовать в опросах
Вы не можете прикреплять файлы к сообщениям
Вы не можете скачивать файлы