Весна / Spring (Джастин Бенсон / Justin Benson, Аарон Мурхед / Aaron Moorhead) [2014, США, фантастика, мелодрама, ужасы, BDRip 1080p] DVO (den904 & DeadSno) + Sub Eng + Original Eng

Ответить на тему
 
Автор Сообщение

user ®

Стаж: 7 лет 7 месяцев

Сообщений: 20008

Пост Пост: #1 от 10-Сен-2015 21:06

[Цитировать]

Весна / Spring
Страна: США
Студия: XYZ Films
Жанр: фантастика, мелодрама, ужасы
Год выпуска: 2014
Продолжительность: 01:49:45
Перевод: Любительский (двухголосый закадровый) [den904 & DeadSno]
Cубтитры: английские
Оригинальная аудиодорожка: английский
Режиссер: Джастин Бенсон / Justin Benson, Аарон Мурхед / Aaron Moorhead
В ролях: Лу Тейлор Пуччи, Надиа Хилкер, Ванесса Беднар, Шэйн Брэйди, Франческо Карнелутти, Винни Каррен, Оджи Дьюк, Джереми Гарднер, Холли Хоукинс
Описание: Американец Эван (Лу Тэйлор Пуччи) теряет мать, скончавшуюся от рака, и влипает в неприятности с законом, которые подбивают его бросить все и отправиться в путешествие в Италию. Там он оказывается в небольшом прибрежном городке, где знакомится с красоткой Луиз (Надя Хилкер) – девушка проявляет к нему интерес, и со временем Эван влюбляется в нее, но у Луиз есть темный секрет, который может стоить парню жизни.
Сэмпл: http://sendfile.su/1128472
Тип релиза: BDRip 1080p
Контейнер: MKV
Видео: 10400 Кбит/с, 1920x800, 23.976 кадр/с
Аудио: Русский (AC3, 6 ch, 384 Кбит/с)
Аудио 2: английский (DTS, 6 ch, 1510 Кбит/с)

MediaInfo
General
Unique ID : 211987715382829790879436750076153964121 (0x9F7B5950D79608B79030C8BD67E42659)
Complete name : F:\Spring.1080p.BluRay.RU_DVO.DD5.1.DTS5.1.mkv
Format : Matroska
Format version : Version 4 / Version 2
File size : 9.59 GiB
Duration : 1h 49mn
Overall bit rate : 12.5 Mbps
Movie name : Spring (2014)
Encoded date : UTC 2015-06-15 12:45:30
Writing application : mkvmerge v7.9.0 ('Birds') 32bit
Writing library : libebml v1.3.1 + libmatroska v1.4.2
Attachements : cover.jpg
_STATISTICS_WRITING_APP : mkvmerge v7.9.0 ('Birds') 32bit
_STATISTICS_WRITING_DATE_UTC : 2015-06-15 12:45:30
_STATISTICS_TAGS : BPS DURATION NUMBER_OF_FRAMES NUMBER_OF_BYTES
DURATION : 01:45:20.480000000
NUMBER_OF_FRAMES : 1601
NUMBER_OF_BYTES : 53347
Video
ID : 1
Format : AVC
Format/Info : Advanced Video Codec
Format profile : High@L4.1
Format settings, CABAC : Yes
Format settings, ReFrames : 5 frames
Codec ID : V_MPEG4/ISO/AVC
Duration : 1h 49mn
Bit rate : 10.4 Mbps
Width : 1 920 pixels
Height : 800 pixels
Display aspect ratio : 2.40:1
Frame rate mode : Constant
Frame rate : 23.976 fps
Color space : YUV
Chroma subsampling : 4:2:0
Bit depth : 8 bits
Scan type : Progressive
Bits/(Pixel*Frame) : 0.282
Stream size : 7.95 GiB (83%)
Title : Spring (2014)
Writing library : x264 core 142 r2431+42 c69a006 tMod [8-bit@4:2:0 X86_64]
Encoding settings : cabac=1 / ref=5 / deblock=1:-3:-3 / analyse=0x3:0x133 / me=umh / subme=11 / psy=1 / fade_compensate=0.00 / psy_rd=1.00:0.05 / mixed_ref=1 / me_range=64 / chroma_me=1 / trellis=2 / 8x8dct=1 / cqm=0 / deadzone=21,11 / fast_pskip=0 / chroma_qp_offset=-3 / threads=18 / lookahead_threads=3 / sliced_threads=0 / nr=0 / decimate=0 / interlaced=0 / bluray_compat=0 / constrained_intra=0 / fgo=0 / bframes=8 / b_pyramid=2 / b_adapt=2 / b_bias=0 / direct=3 / weightb=1 / open_gop=0 / weightp=2 / keyint=250 / keyint_min=23 / scenecut=40 / intra_refresh=0 / rc_lookahead=250 / rc=crf / mbtree=0 / crf=20.0000 / qcomp=0.60 / qpmin=0:0:0 / qpmax=69:69:69 / qpstep=4 / vbv_maxrate=62500 / vbv_bufsize=78125 / crf_max=0.0 / nal_hrd=none / filler=0 / ip_ratio=1.40 / pb_ratio=1.30 / aq=4:1.05 / aq-sensitivity=10.00 / aq-factor=1.00:1.00:1.00 / aq2=0 / aq3=2:[0.50:0.50]:[0.50:0.50]:[0.50:0.50]:[0.50:0.50] / aq3-sensitivity=10.00 / aq3-factor=[1.00:1.00]:[1.00:1.00]:[1.00:1.00] / aq3-boundary=192:64:24 / zones=152078,157872,q=35
Language : English
Default : Yes
Forced : No
Color range : Limited
Color primaries : BT.709
Transfer characteristics : BT.709
Matrix coefficients : BT.709
DURATION : 01:49:44.578000000
NUMBER_OF_FRAMES : 157872
NUMBER_OF_BYTES : 8737135370
_STATISTICS_WRITING_APP : mkvmerge v7.9.0 ('Birds') 32bit
_STATISTICS_WRITING_DATE_UTC : 2015-06-15 12:45:30
_STATISTICS_TAGS : BPS DURATION NUMBER_OF_FRAMES NUMBER_OF_BYTES
Audio #1
ID : 2
Format : AC-3
Format/Info : Audio Coding 3
Mode extension : CM (complete main)
Format settings, Endianness : Big
Codec ID : A_AC3
Duration : 1h 49mn
Bit rate mode : Constant
Bit rate : 384 Kbps
Channel(s) : 6 channels
Channel positions : Front: L C R, Side: L R, LFE
Sampling rate : 48.0 KHz
Bit depth : 16 bits
Compression mode : Lossy
Stream size : 301 MiB (3%)
Title : DVO (2D)
Language : Russian
Default : Yes
Forced : No
Audio #2
ID : 3
Format : DTS
Format/Info : Digital Theater Systems
Mode : 16
Format settings, Endianness : Big
Codec ID : A_DTS
Duration : 1h 49mn
Bit rate mode : Constant
Bit rate : 1 510 Kbps
Channel(s) : 6 channels
Channel positions : Front: L C R, Side: L R, LFE
Sampling rate : 48.0 KHz
Bit depth : 24 bits
Compression mode : Lossy
Stream size : 1.16 GiB (12%)
Language : English
Default : No
Forced : No
Text
ID : 4
Format : UTF-8
Codec ID : S_TEXT/UTF8
Codec ID/Info : UTF-8 Plain Text
Language : English
Default : Yes
Forced : No
Menu
00:00:00.000 : en:1
00:11:37.000 : en:2
00:22:31.000 : en:3
00:32:40.000 : en:4
00:43:10.000 : en:5
00:55:47.000 : en:6
01:05:42.000 : en:7
01:16:17.000 : en:8
01:27:16.000 : en:9
01:37:56.000 : en:10
01:45:41.000 : en:11
Скриншоты
Скачать

Скачать торрент!

Как скачивать? · Что такое торрент? · Рейтинг и ограничения

Сайт не распространяет и не хранит электронные версии произведений, а лишь предоставляет доступ к создаваемому пользователями каталогу ссылок на торрент-файлы, которые содержат только списки хеш-сумм

[Профиль] [ЛС]
Показать сообщения:    
Ответить на тему

Текущее время: Сегодня 23:14

Часовой пояс: GMT + 4



Вы не можете начинать темы
Вы не можете отвечать на сообщения
Вы не можете редактировать свои сообщения
Вы не можете удалять свои сообщения
Вы не можете голосовать в опросах
Вы не можете прикреплять файлы к сообщениям
Вы не можете скачивать файлы