Вымирание / Extinction (Мигель Анхель Вивас / Miguel Angel Vivas) [2015, Испания, Франция, США, Венгрия, ужасы, фантастика, драма, WEB-DL 720p] MVO (iTunes) + Ukr + Original Eng + Sub Rus, Ukr, Eng

Ответить на тему
 
Автор Сообщение

user ®

Стаж: 7 лет 7 месяцев

Сообщений: 20008

Пост Пост: #1 от 10-Сен-2015 21:06

[Цитировать]

Вымирание / Extinction
«They are the last»
Год выпуска: 2015
Страна: Испания, Франция, США, Венгрия
Производство: La Ferme! Productions, Laokoon Filmgroup, Ombra Films, Telefonica Studios, Vaca Films
Жанр: Ужасы, фантастика, драма
Продолжительность: 01:52:44
Перевод: Профессиональный (многоголосый закадровый) | iTunes
Оригинальная аудиодорожка: Английский
Субтитры: Русские, украинские, английские
Режиссёр: Мигель Анхель Вивас
В ролях: Мэттью Фокс, Джеффри Донован, Куинн Маккоулган, Валерия Веро, Клара Лаго, Eduardo Fedriani, Мэтт Девере, Алекс Хафнер, Джереми Вилер, Katharine Bubbear и др.
Описание: После нескольких сотен тысяч лет эволюции и превосходства люди были почти уничтожены с лица Земли. В течение всего лишь нескольких дней инфекция превратила их в диких существ без интеллекта, они стали злыми и безжалостными. Через семь лет после этого мы находим небольшой городок — Harmony, покрытый многолетними снегами. Двое мужчин, давние друзья Патрик и Джек, и дочь Джека, Лу — единственные оставшиеся в живых. Тем не менее, они не общаются или даже не признают друг друга. Что-то ужасное произошло между ними и глубокая неумолимая ненависть прекратила их дружбу давным-давно.


Сэмпл
Качество: WEB-DL 720p
Формат: MKV
Видео: MPEG-4 AVC: 3868 kbps / 1280x532 / 23.976 fps / 2.40:1
Аудио: Russian: AC3 / 5.1 / 48 kHz / 384 kbps | iTunes
Аудио: English: AC3 / 5.1 / 48 kHz / 384 kbps | Оригинальный (iTunes US)
MediaInfoXP
GeneralUnique ID : 201012045231664607608144138489430157605 (0x973982FF63713C63A86A418DDFD22925)Complete name : D:\Extinction.2015.720p.WEB-DL.Rus.Eng.x264-iTunes.mkvFormat : MatroskaFormat version : Version 2File size : 3.73 GiBDuration : 1h 52mnOverall bit rate : 4 730 KbpsMovie name : Extinction (2015) - Release for HDCLUBEncoded date : UTC 2015-09-07 05:11:32Writing application : mkvmerge v3.4.0 ('Rapunzel') built on May 15 2010 09:38:20Writing library : libebml v0.8.0 + libmatroska v0.9.0
VideoID : 1Format : AVCFormat/Info : Advanced Video CodecFormat profile : Main@L3.1Format settings, CABAC : NoFormat settings, ReFrames : 2 framesCodec ID : V_MPEG4/ISO/AVCDuration : 1h 52mnBit rate : 3 868 KbpsWidth : 1 280 pixelsHeight : 532 pixelsDisplay aspect ratio : 2.40:1Frame rate mode : ConstantFrame rate : 23.976 fpsColor space : YUVChroma subsampling : 4:2:0Bit depth : 8 bitsScan type : ProgressiveBits/(Pixel*Frame) : 0.237Stream size : 3.05 GiB (82%)Title : Extinction (2015) - Release for HDCLUBLanguage : EnglishDefault : YesForced : NoColor range : LimitedColor primaries : BT.709Transfer characteristics : BT.709Matrix coefficients : BT.709
Audio #1ID : 2Format : AC-3Format/Info : Audio Coding 3Mode extension : CM (complete main)Format settings, Endianness : BigCodec ID : A_AC3Duration : 1h 52mnBit rate mode : ConstantBit rate : 384 KbpsChannel(s) : 6 channelsChannel positions : Front: L C R, Side: L R, LFESampling rate : 48.0 KHzCompression mode : LossyStream size : 310 MiB (8%)Title : AC3 5.1 @ 384 kbps - MVO, iTunesLanguage : RussianDefault : YesForced : No
Audio #2ID : 3Format : AC-3Format/Info : Audio Coding 3Mode extension : CM (complete main)Format settings, Endianness : BigCodec ID : A_AC3Duration : 1h 52mnBit rate mode : ConstantBit rate : 384 KbpsChannel(s) : 6 channelsChannel positions : Front: L C R, Side: L R, LFESampling rate : 48.0 KHzCompression mode : LossyStream size : 310 MiB (8%)Title : AC3 5.1 @ 384 kbpsLanguage : EnglishDefault : NoForced : No
Text #1ID : 4Format : UTF-8Codec ID : S_TEXT/UTF8Codec ID/Info : UTF-8 Plain TextTitle : iTunesLanguage : RussianDefault : NoForced : No
Text #2ID : 5Format : UTF-8Codec ID : S_TEXT/UTF8Codec ID/Info : UTF-8 Plain TextTitle : iTunesLanguage : UkrainianDefault : NoForced : No
Text #3ID : 6Format : UTF-8Codec ID : S_TEXT/UTF8Codec ID/Info : UTF-8 Plain TextTitle : iTunesLanguage : EnglishDefault : NoForced : No
Menu00:00:00.000 : en:100:09:59.000 : en:200:15:43.000 : en:300:21:53.000 : en:400:27:33.000 : en:500:32:57.000 : en:600:38:44.000 : en:700:44:31.000 : en:800:49:41.000 : en:900:56:19.000 : en:1001:03:04.000 : en:1101:09:58.000 : en:1201:17:03.000 : en:1301:25:41.000 : en:1401:35:25.000 : en:1501:44:46.000 : en:16
Скриншот с названием фильма
Название не показано.
Скриншоты
Скачать

Скачать торрент!

Как скачивать? · Что такое торрент? · Рейтинг и ограничения

Сайт не распространяет и не хранит электронные версии произведений, а лишь предоставляет доступ к создаваемому пользователями каталогу ссылок на торрент-файлы, которые содержат только списки хеш-сумм

[Профиль] [ЛС]
Показать сообщения:    
Ответить на тему

Текущее время: Сегодня 22:13

Часовой пояс: GMT + 4



Вы не можете начинать темы
Вы не можете отвечать на сообщения
Вы не можете редактировать свои сообщения
Вы не можете удалять свои сообщения
Вы не можете голосовать в опросах
Вы не можете прикреплять файлы к сообщениям
Вы не можете скачивать файлы