Американский пирог: Переполох в общаге / Американский пирог: Общага Беты / American Pie Presents Beta House (Эндрю Уоллер / Andrew Uoller) [2007, США, Канада, комедия, WEB-DL 720p] 2x DVO + VO + Sub Eng + Original Eng

Ответить на тему
 
Автор Сообщение

user ®

Стаж: 7 лет 7 месяцев

Сообщений: 20008

Пост Пост: #1 от 10-Сен-2015 18:00

[Цитировать]

Американский пирог: Переполох в общаге / Американский пирог: Общага Беты / American Pie Presents Beta House
Страна: США, Канада
Студия: Rogue Pictures, Neo Art & Logic, Higher Learning Productions
Жанр: комедия
Год выпуска: 2007
Продолжительность: 01:28:17
Перевод 1: Профессиональный (двухголосый закадровый)
Перевод 2: Одноголосый закадровый Владимир Воронцов Присутствует ненормативная лексика
Перевод 3: Любительский (двухголосый закадровый) INTRFILM
Cубтитры: английские
Оригинальная аудиодорожка: английский
Режиссер: Эндрю Уоллер / Andrew Uoller
В ролях: Джон Уайт, Стив Тэлли, Кристофер МакДональд, Юджин Леви, Меган Хэфферн, Джэйк Сигел, Ник Нак, Джонатан Кельтц, Брэдфорд Андерсон, Александрия Галанте и др.
Описание: Новоиспеченные студенты Эрик, Райан и Куз вступают в самое крутое братство на кампусе — Бета Хаус под президентством легендарного Дуайта Стифлера. Но благородному делу дуракаваляния решило помешать вражеское братство зубрил и Бетам приходится вступить в борьбу за право на хороший сабантуйчик.
II Сэмпл II IMDB II
Доп. информация:
За двухголосый перевод спасибо к.р.о.х.а.
За одноголосый закадровый перевод Владимира Воронцова спасибо hintoz
За перевод INTRFILM спасибо sergeide
Тип релиза: WEB-DL 720p
Контейнер: MKV
Видео: AVC / 1280x690 / 2.35:1 / 23.976fps / Bit rate 4008Kbps
Аудио 1: AC3 / 48.0 KHz / 6ch. / 384kbps / rus / dvo
Аудио 2: AC3 / 48.0 KHz / 6ch. / 384kbps / rus / vo / Владимир Воронцов
Аудио 3: AC3 / 48.0 KHz /2ch. / 192kbps / rus / dvo / INTRFILM
Аудио 4: AC3 / 48.0 KHz / 6ch. / 384kbps / eng
Формат субтитров: softsub (SRT)
MediaInfo
Общее
Уникальный идентификатор : 199040708334098067613198741100330509881 (0x95BDD895A2E3C29A9232A63AB7CC6639)
Полное имя : H:\!_Torrent\American.Pie.Presents.Beta.House.2007.WEB-DL.720p_by_vedigo.mkv
Формат : Matroska
Версия формата : Version 4 / Version 2
Размер файла : 3,37 Гбайт
Продолжительность : 1 ч. 28 м.
Общий поток : 5461 Кбит/сек
Название фильма : American.Pie.Presents.Beta.House.2007.WEB-DL.720p_by_vedigo
Дата кодирования : UTC 2015-09-05 02:53:07
Программа кодирования : mkvmerge v8.3.0 ('Over the Horizon') 64bit
Библиотека кодирования : libebml v1.3.1 + libmatroska v1.4.2
DURATION : 01:28:17.120000000
NUMBER_OF_FRAMES : 165535
NUMBER_OF_BYTES : 254261760
_STATISTICS_WRITING_APP : mkvmerge v8.3.0 ('Over the Horizon') 64bit
_STATISTICS_WRITING_DATE_UTC : 2015-09-05 02:53:07
_STATISTICS_TAGS : BPS DURATION NUMBER_OF_FRAMES NUMBER_OF_BYTES
Видео
Идентификатор : 1
Формат : AVC
Формат/Информация : Advanced Video Codec
Профиль формата : High@L3.1
Параметр CABAC формата : Нет
Параметр ReFrames формата : 2 кадра
Идентификатор кодека : V_MPEG4/ISO/AVC
Продолжительность : 1 ч. 28 м.
Битрейт : 4008 Кбит/сек
Ширина : 1280 пикселей
Высота : 690 пикселей
Соотношение сторон : 1,85:1
Режим частоты кадров : Постоянный
Частота кадров : 23,976 кадра/сек
Цветовое пространство : YUV
Субдискретизация насыщенности : 4:2:0
Битовая глубина : 8 бит
Тип развёртки : Прогрессивная
Бит/(Пиксели*Кадры) : 0.189
Размер потока : 2,47 Гбайт (73%)
Заголовок : American.Pie.Presents.Beta.House.2007.WEB-DL.720p_by_vedigo
Default : Да
Forced : Нет
Цветовой диапазон : Limited
Основные цвета : BT.709
Характеристики трансфера : BT.709
Коэффициенты матрицы : BT.709
Аудио #1
Идентификатор : 2
Формат : AC-3
Формат/Информация : Audio Coding 3
Расширение режима : CM (complete main)
Параметр Endianness формата : Big
Идентификатор кодека : A_AC3
Продолжительность : 1 ч. 28 м.
Вид битрейта : Постоянный
Битрейт : 384 Кбит/сек
Каналы : 6 каналов
Расположение каналов : Front: L C R, Side: L R, LFE
Частота : 48,0 КГц
Метод сжатия : С потерями
Размер потока : 242 Мбайт (7%)
Заголовок : DVO
Язык : Russian
Default : Да
Forced : Нет
Аудио #2
Идентификатор : 3
Формат : AC-3
Формат/Информация : Audio Coding 3
Расширение режима : CM (complete main)
Параметр Endianness формата : Big
Идентификатор кодека : A_AC3
Продолжительность : 1 ч. 28 м.
Вид битрейта : Постоянный
Битрейт : 384 Кбит/сек
Каналы : 6 каналов
Расположение каналов : Front: L C R, Side: L R, LFE
Частота : 48,0 КГц
Метод сжатия : С потерями
Размер потока : 242 Мбайт (7%)
Заголовок : VO @ Владимир Воронцов
Язык : Russian
Default : Нет
Forced : Нет
Аудио #3
Идентификатор : 4
Формат : AC-3
Формат/Информация : Audio Coding 3
Расширение режима : CM (complete main)
Параметр Endianness формата : Big
Идентификатор кодека : A_AC3
Продолжительность : 1 ч. 28 м.
Вид битрейта : Постоянный
Битрейт : 192 Кбит/сек
Каналы : 2 канала
Расположение каналов : Front: L R
Частота : 48,0 КГц
Метод сжатия : С потерями
Размер потока : 121 Мбайт (4%)
Заголовок : DVO @ INTRFILM
Язык : Russian
Default : Нет
Forced : Нет
Аудио #4
Идентификатор : 5
Формат : AC-3
Формат/Информация : Audio Coding 3
Расширение режима : CM (complete main)
Параметр Endianness формата : Big
Идентификатор кодека : A_AC3
Продолжительность : 1 ч. 28 м.
Вид битрейта : Постоянный
Битрейт : 384 Кбит/сек
Каналы : 6 каналов
Расположение каналов : Front: L C R, Side: L R, LFE
Частота : 48,0 КГц
Метод сжатия : С потерями
Размер потока : 242 Мбайт (7%)
Заголовок : original
Язык : English
Default : Нет
Forced : Нет
Текст
Идентификатор : 6
Формат : UTF-8
Идентификатор кодека : S_TEXT/UTF8
Идентификатор кодека/Информация : UTF-8 Plain Text
Заголовок : subtitle eng
Язык : English
Default : Нет
Forced : Нет
Меню
00:00:00.000 : en:Welcome Freshmen (Main Titles)
00:02:43.000 : en:Coed Living
00:06:25.000 : en:The Geek House
00:11:10.000 : en:A New Age
00:15:34.000 : en:Party VIP Style
00:20:24.000 : en:Beta Legacy
00:23:50.000 : en:Pledge Tasks
00:25:45.000 : en:Banned Games
00:30:54.000 : en:Self-Control
00:36:15.000 : en:Sex Addict
00:42:57.000 : en:Pleasant Dreams
00:48:35.000 : en:Beta Way of Life
00:51:49.000 : en:Task Completed
00:54:40.000 : en:Challenged
00:59:28.000 : en:Behind the Games
01:03:50.000 : en:Afraid to Compete?
01:09:22.000 : en:Puking Doesn't Disqualify
01:13:19.000 : en:Sudden Death
01:15:58.000 : en:Beta House Rules!
01:22:14.000 : en:End Titles
Скриншоты
Скачать

Скачать торрент!

Как скачивать? · Что такое торрент? · Рейтинг и ограничения

Сайт не распространяет и не хранит электронные версии произведений, а лишь предоставляет доступ к создаваемому пользователями каталогу ссылок на торрент-файлы, которые содержат только списки хеш-сумм

[Профиль] [ЛС]
Показать сообщения:    
Ответить на тему

Текущее время: Сегодня 07:53

Часовой пояс: GMT + 4



Вы не можете начинать темы
Вы не можете отвечать на сообщения
Вы не можете редактировать свои сообщения
Вы не можете удалять свои сообщения
Вы не можете голосовать в опросах
Вы не можете прикреплять файлы к сообщениям
Вы не можете скачивать файлы