Бог велел мне / Демон / God Told Me To / Demon (Ларри Коэн / Larry Cohen) [1976, США, ужасы, фантастика, триллер, криминал, детектив, BDRemux 1080p] AVO (Андрей Дольский) + Sub Eng + Original Eng + Commentary Eng

Ответить на тему
 
Автор Сообщение

user ®

Стаж: 7 лет 7 месяцев

Сообщений: 20008

Пост Пост: #1 от 10-Сен-2015 18:00

[Цитировать]

Бог велел мне / Демон / God Told Me To / Demon
Страна: США
Жанр: ужасы, фантастика, триллер, криминал, детектив
Год выпуска: 1976
Продолжительность: 01:29:34
Перевод: Авторский (одноголосый закадровый) Андрей Дольский
Cубтитры: английские
Оригинальная аудиодорожка: английский
-
Режиссер: Ларри Коэн / Larry Cohen
В ролях: Тони Ло Бьянко, Дебора Раффин, Сэнди Деннис, Сильвия Сидни, Сэм Ливин, Роберт Дривас, Майк Келлин, Ричард Линч, Сэмми Уильямс, Джо Флорес Чейз
-
Описание: События картины разворачиваются вокруг цепи загадочных массовых убийств, беспричинно совершенных самыми обычными людьми. Мужчина, взобравшись на водонапорную башню, открыл огонь из снайперской винтовки по толпе прохожих; отец благополучного семейства вырезал домочадцев за обеденной трапезой; образцовый коп расстрелял праздничную демонстрацию своих коллег - все они утверждали, что Господь повелел им сделать это...

Тип релиза: BDRemux 1080p
Контейнер: MKV
Видео: MPEG-4 AVC / NTSC 16:9 / 1920x1080 (1,85:1) / 27911 kbps / 23,976 fps / High@L4.1
Аудио 1: Russian / AC3 / 48 kHz / 2.0 Ch / 192 kbps / 16 bit / AVO / Андрей Дольский
Аудио 2: English / DTS-HD Master Audio / 7.1 Ch / 48 kHz / 3815 kbps / 24-bit (DTS Core: 5.1 Ch / 48 kHz / 1509 kbps / 24-bit) / Original
Аудио 3: English / AC3 / 48 kHz / 2.0 Ch / 224 kbps / 16 bit / Commentary
Формат субтитров: softsub (SRT)
Навигация по главам: есть

Сэмпл MediaInfo
Общее
Уникальный идентификатор : 200424142527521234436533605116665714473 (0x96C8492809DA56CD92BDD1DB1AC0D729)
Полное имя : D:\God Told Me To.1976.BDRemux.1080p.mkv
Формат : Matroska
Версия формата : Version 4 / Version 2
Размер файла : 20,1 Гбайт
Продолжительность : 1 ч. 29 м.
Режим общего битрейта : Переменный
Общий поток : 32,1 Мбит/сек
Дата кодирования : UTC 2015-09-05 05:20:48
Программа кодирования : mkvmerge v8.3.0 ('Over the Horizon') 64bit
Библиотека кодирования : libebml v1.3.1 + libmatroska v1.4.2
DURATION : 01:25:41.261000000
NUMBER_OF_FRAMES : 1065
NUMBER_OF_BYTES : 36299
_STATISTICS_WRITING_APP : mkvmerge v8.3.0 ('Over the Horizon') 64bit
_STATISTICS_WRITING_DATE_UTC : 2015-09-05 05:20:48
_STATISTICS_TAGS : BPS DURATION NUMBER_OF_FRAMES NUMBER_OF_BYTES
Видео
Идентификатор : 1
Формат : AVC
Формат/Информация : Advanced Video Codec
Профиль формата : High@L4.1
Параметр CABAC формата : Да
Параметр ReFrames формата : 4 кадра
Идентификатор кодека : V_MPEG4/ISO/AVC
Продолжительность : 1 ч. 29 м.
Вид битрейта : Переменный
Максимальный битрейт : 39,0 Мбит/сек
Ширина : 1920 пикселей
Высота : 1080 пикселей
Соотношение сторон : 16:9
Режим частоты кадров : Постоянный
Частота кадров : 23,976 кадра/сек
Цветовое пространство : YUV
Субдискретизация насыщенности : 4:2:0
Битовая глубина : 8 бит
Тип развёртки : Прогрессивная
Язык : English
Default : Да
Forced : Нет
Аудио #1
Идентификатор : 2
Формат : AC-3
Формат/Информация : Audio Coding 3
Расширение режима : CM (complete main)
Параметр Endianness формата : Big
Идентификатор кодека : A_AC3
Продолжительность : 1 ч. 29 м.
Вид битрейта : Постоянный
Битрейт : 192 Кбит/сек
Каналы : 2 канала
Расположение каналов : Front: L R
Частота : 48,0 КГц
Битовая глубина : 16 бит
Метод сжатия : С потерями
Размер потока : 123 Мбайт (1%)
Заголовок : AVO / Андрей Дольский
Язык : Russian
Default : Да
Forced : Нет
Аудио #2
Идентификатор : 3
Формат : DTS
Формат/Информация : Digital Theater Systems
Профиль формата : MA / Core
Режим : 16
Параметр Endianness формата : Big
Идентификатор кодека : A_DTS
Продолжительность : 1 ч. 29 м.
Вид битрейта : Переменный
Битрейт : Неизвестно / 1509 Кбит/сек
Каналы : 8 каналов / 6 каналов
Расположение каналов : Front: L C R, Side: L R, Back: L R, LFE / Front: L C R, Side: L R, LFE
Частота : 48,0 КГц
Битовая глубина : 24 бит
Метод сжатия : Без потерь / Lossy
Заголовок : Original
Язык : English
Default : Нет
Forced : Нет
Аудио #3
Идентификатор : 4
Формат : AC-3
Формат/Информация : Audio Coding 3
Расширение режима : CM (complete main)
Параметр Endianness формата : Big
Идентификатор кодека : A_AC3
Продолжительность : 1 ч. 29 м.
Вид битрейта : Постоянный
Битрейт : 224 Кбит/сек
Каналы : 2 канала
Расположение каналов : Front: L R
Частота : 48,0 КГц
Битовая глубина : 16 бит
Метод сжатия : С потерями
Размер потока : 144 Мбайт (1%)
Заголовок : Commentary with Writer/Producer/Director Larry Cohen
Язык : English
Default : Нет
Forced : Нет
Текст
Идентификатор : 5
Формат : UTF-8
Идентификатор кодека : S_TEXT/UTF8
Идентификатор кодека/Информация : UTF-8 Plain Text
Заголовок : Original
Язык : English
Default : Нет
Forced : Нет
Меню
00:00:00.000 : en:
00:01:35.053 : en:
00:08:06.152 : en:
00:11:46.205 : en:
00:15:43.525 : en:
00:21:26.285 : en:
00:28:47.559 : en:
00:34:42.246 : en:
00:38:24.802 : en:
00:43:27.062 : en:
00:47:07.866 : en:
00:52:35.110 : en:
00:56:30.011 : en:
00:59:08.294 : en:
01:09:01.679 : en:
01:16:04.560 : en:
01:20:25.487 : en:
01:27:12.477 : en:
01:28:24.924 : en:
Скриншоты
Скачать

Скачать торрент!

Как скачивать? · Что такое торрент? · Рейтинг и ограничения

Сайт не распространяет и не хранит электронные версии произведений, а лишь предоставляет доступ к создаваемому пользователями каталогу ссылок на торрент-файлы, которые содержат только списки хеш-сумм

[Профиль] [ЛС]
Показать сообщения:    
Ответить на тему

Текущее время: Сегодня 17:49

Часовой пояс: GMT + 4



Вы не можете начинать темы
Вы не можете отвечать на сообщения
Вы не можете редактировать свои сообщения
Вы не можете удалять свои сообщения
Вы не можете голосовать в опросах
Вы не можете прикреплять файлы к сообщениям
Вы не можете скачивать файлы