Потерявшиеся во тьме / Lost After Dark (Йен Кесснер / Ian Kessner) [2014, Канада, ужасы, BDRip 720p] VO (PashaUp) + Sub Eng + Original Eng

Ответить на тему
 
Автор Сообщение

user ®

Стаж: 7 лет 7 месяцев

Сообщений: 20008

Пост Пост: #1 от 10-Сен-2015 14:54

[Цитировать]

Потерявшиеся во тьме / Lost After Dark
Страна: Канада
Студия: Goldrush Entertainment
Жанр: ужасы
Год выпуска: 2014
Продолжительность: 01:25:06
Перевод: Одноголосый закадровый PashaUp
Cубтитры: английские
Оригинальная аудиодорожка: английский
Режиссер: Йен Кесснер / Ian Kessner
В ролях: Роберт Патрик, Дэвид Липпер, Александр Кэлверт, Джесси Камачо, Майкл Винсент Дагостино, Сара Фишер, Элиз Гэтьен, Ив Харлоу, Стивен Джеймс, Джастин Келли
Описание: Группа подростков решает как следует оттянуться и угоняет школьный автобус. Но они даже не подозревали, что их поездка обернется встречей с каннибалом-убийцей.
Сэмпл: http://multi-up.com/1065005
Тип релиза: BDRip 720p / playHD
Контейнер: MKV
Видео: MPEG-4 AVC Video / 7164 Kbps / 1280 х 720 pix / 23.976 fps
Аудио 1: Dolby Digital Audio / Russian / 5.1 / 48 kHz / 448 kbps / 16-bit
Аудио 2: Dolby Digital Audio / English / 5.1 / 48 kHz / 640 kbps / 16-bit
Формат субтитров: softsub (SRT)

MediaInfo
General
Unique ID : 238132712792009576044177038963629340795 (0xB326B1360370B0B6BB63D267F0B7B87B)
Complete name : D:\kirovtorrent\Lost.After.Dark.2014.BDRip.720p.mkv
Format : Matroska
Format version : Version 4 / Version 2
File size : 5.00 GiB
Duration : 1h 25mn
Overall bit rate : 8 419 Kbps
Encoded date : UTC 2015-09-03 18:34:58
Writing application : mkvmerge v6.8.0 ('Theme for Great Cities') 64bit built on Mar 2 2014 21:34:26
Writing library : libebml v1.3.0 + libmatroska v1.4.1
Video
ID : 1
Format : AVC
Format/Info : Advanced Video Codec
Format profile : High@L4.1
Format settings, CABAC : Yes
Format settings, ReFrames : 9 frames
Codec ID : V_MPEG4/ISO/AVC
Duration : 1h 25mn
Bit rate : 7 164 Kbps
Width : 1 280 pixels
Height : 720 pixels
Display aspect ratio : 16:9
Frame rate mode : Constant
Frame rate : 23.976 fps
Color space : YUV
Chroma subsampling : 4:2:0
Bit depth : 8 bits
Scan type : Progressive
Bits/(Pixel*Frame) : 0.324
Stream size : 4.26 GiB (85%)
Title : WSmit60 & playHD
Writing library : x264 core 146 r2538 121396c
Encoding settings : cabac=1 / ref=9 / deblock=1:-3:-3 / analyse=0x3:0x133 / me=umh / subme=10 / psy=1 / psy_rd=1.00:0.00 / mixed_ref=1 / me_range=32 / chroma_me=1 / trellis=2 / 8x8dct=1 / cqm=0 / deadzone=21,11 / fast_pskip=0 / chroma_qp_offset=-2 / threads=12 / lookahead_threads=2 / sliced_threads=0 / nr=0 / decimate=0 / interlaced=0 / bluray_compat=0 / constrained_intra=0 / bframes=9 / b_pyramid=2 / b_adapt=2 / b_bias=0 / direct=3 / weightb=1 / open_gop=0 / weightp=2 / keyint=250 / keyint_min=24 / scenecut=40 / intra_refresh=0 / rc=crf / mbtree=0 / crf=17.8 / qcomp=0.60 / qpmin=0 / qpmax=69 / qpstep=4 / ip_ratio=1.40 / pb_ratio=1.30 / aq=3:0.80
Language : English
Default : Yes
Forced : No
Audio #1
ID : 2
Format : AC-3
Format/Info : Audio Coding 3
Mode extension : CM (complete main)
Format settings, Endianness : Big
Codec ID : A_AC3
Duration : 1h 25mn
Bit rate mode : Constant
Bit rate : 448 Kbps
Channel(s) : 6 channels
Channel positions : Front: L C R, Side: L R, LFE
Sampling rate : 48.0 KHz
Bit depth : 16 bits
Compression mode : Lossy
Stream size : 273 MiB (5%)
Title : VO (PashaUp) AC3 5.1 @ 448k
Language : Russian
Default : Yes
Forced : No
Audio #2
ID : 3
Format : AC-3
Format/Info : Audio Coding 3
Mode extension : CM (complete main)
Format settings, Endianness : Big
Codec ID : A_AC3
Duration : 1h 25mn
Bit rate mode : Constant
Bit rate : 640 Kbps
Channel(s) : 6 channels
Channel positions : Front: L C R, Side: L R, LFE
Sampling rate : 48.0 KHz
Bit depth : 16 bits
Compression mode : Lossy
Stream size : 390 MiB (8%)
Title : ORG AC3 5.1 @ 640k
Language : English
Default : No
Forced : No
Text
ID : 4
Format : UTF-8
Codec ID : S_TEXT/UTF8
Codec ID/Info : UTF-8 Plain Text
Language : English
Default : No
Forced : No
Menu
00:00:00.000 : en:00:00:00.000
00:01:49.943 : en:00:01:49.943
00:11:05.957 : en:00:11:05.957
00:17:46.816 : en:00:17:46.816
00:23:04.800 : en:00:23:04.800
00:29:24.137 : en:00:29:24.137
00:39:28.324 : en:00:39:28.324
00:46:11.143 : en:00:46:11.143
00:54:56.752 : en:00:54:56.752
01:03:02.821 : en:01:03:02.821
01:10:40.653 : en:01:10:40.653
01:20:56.852 : en:01:20:56.852
Скриншоты
Скачать

Скачать торрент!

Как скачивать? · Что такое торрент? · Рейтинг и ограничения

Сайт не распространяет и не хранит электронные версии произведений, а лишь предоставляет доступ к создаваемому пользователями каталогу ссылок на торрент-файлы, которые содержат только списки хеш-сумм

[Профиль] [ЛС]
Показать сообщения:    
Ответить на тему

Текущее время: Сегодня 00:27

Часовой пояс: GMT + 4



Вы не можете начинать темы
Вы не можете отвечать на сообщения
Вы не можете редактировать свои сообщения
Вы не можете удалять свои сообщения
Вы не можете голосовать в опросах
Вы не можете прикреплять файлы к сообщениям
Вы не можете скачивать файлы