Темные тайны / Dark Places (Жиль Паке-Бреннер / Gilles Paquet-Brenner) [2015, Великобритания, Франция, США, триллер, драма, детектив, BDRip] VO (А.Матвеев)

Ответить на тему
 
Автор Сообщение

user ®

Стаж: 7 лет 7 месяцев

Сообщений: 20008

Пост Пост: #1 от 10-Сен-2015 14:54

[Цитировать]

Темные тайны / Dark Places

«In 1985, her entire family was murdered. 30 years later, the truth emerges»
-Страна: Великобритания, Франция, США
Жанр: триллер, драма, детектив
Год выпуска: 2015
Продолжительность: 01:52:29
Перевод: одноголосый закадровый-| Алексей Матвеев |
Cубтитры: нет
Оригинальная аудиодорожка: нет-Режиссер: Жиль Паке-Бреннер / Gilles Paquet-Brenner-В ролях: Шарлиз Терон (Libby Day), Стерлинг Джеринс (Young Libby Day), Николас Холт (Lyle Wirth), Кристина Хендрикс (Patty Day), Кори Столл (Ben Day), Тай Шеридан (Young Ben Day), Андреа Рот (Diondra), Хлоя Грейс Морец (Young Diondra), Шон Бриджерс (Runner Day), Дж. ЛаРоуз (Trey Teepano), Шэннон Кук-Чун (Young Trey Trepan), Дженнифер Пирс Матус (Diane)...-Описание: Двадцать четыре года назад Либби Дэй пережила страшную трагедию : ночью убили ее мать и двух сестер, в преступлении признается виновным ее старший брат — Бэн Дэй, вина которого не была доказана полностью. Спустя время Либби Дэй решает возобновить расследование и узнать все, что произошло в ту роковую ночь. Готова ли она пережить этот кошмар вновь? На что она готова пойти ради правды? И какие ужасы хранят в себе эти темные тайны?- -Примечание: Присутствует ненормативная лексика.
-Качество видео: BDRip | Dark.Places.2015.1080p.BluRay.AVC.DTS-HD.MA.5.1 |
Формат видео: AVI
Видео: 720x304, 24.000 fps, XviD build 73 ~1477 kbps avg, 0.280 bit/pixel
Аудио: 48 kHz, AC3 Dolby Digital, 3/2 (L,C,R,l,r) + LFE ch, ~384.00 kbps
-Дополнительно о фильме:
Производство, студия дубляжа, прокат:
MediaInfo
Complete name : DARK_PLACES.By_Flash.avi
Format : AVI
Format/Info : Audio Video Interleave
File size : 1.47 GiB
Duration : 1h 52mn
Overall bit rate : 1 870 Kbps
Writing application : VirtualDubMod 1.5.10.3 | www.virtualdub-fr.org || (build 2550/release)
Writing library : VirtualDubMod build 2550/release
Video
ID : 0
Format : MPEG-4 Visual
Format profile : Advanced Simple@L5
Format settings, BVOP : 1
Format settings, QPel : No
Format settings, GMC : No warppoints
Format settings, Matrix : Custom
Codec ID : XVID
Codec ID/Hint : XviD
Duration : 1h 52mn
Bit rate : 1 477 Kbps
Width : 720 pixels
Height : 304 pixels
Display aspect ratio : 2.35:1
Frame rate : 24.000 fps
Color space : YUV
Chroma subsampling : 4:2:0
Bit depth : 8 bits
Scan type : Progressive
Compression mode : Lossy
Bits/(Pixel*Frame) : 0.281
Stream size : 1.16 GiB (79%)
Writing library : XviD 73
Audio
ID : 1
Format : AC-3
Format/Info : Audio Coding 3
Mode extension : CM (complete main)
Format settings, Endianness : Big
Codec ID : 2000
Duration : 1h 52mn
Bit rate mode : Constant
Bit rate : 384 Kbps
Channel(s) : 6 channels
Channel positions : Front: L C R, Side: L R, LFE
Sampling rate : 48.0 KHz
Bit depth : 16 bits
Compression mode : Lossy
Stream size : 309 MiB (21%)
Alignment : Split accross interleaves
Interleave, duration : 42 ms (1.00 video frame)
Interleave, preload duration : 500 ms
Скриншот c названием фильма Скриншоты
Скачать

Скачать торрент!

Как скачивать? · Что такое торрент? · Рейтинг и ограничения

Сайт не распространяет и не хранит электронные версии произведений, а лишь предоставляет доступ к создаваемому пользователями каталогу ссылок на торрент-файлы, которые содержат только списки хеш-сумм

[Профиль] [ЛС]
Показать сообщения:    
Ответить на тему

Текущее время: Сегодня 14:11

Часовой пояс: GMT + 4



Вы не можете начинать темы
Вы не можете отвечать на сообщения
Вы не можете редактировать свои сообщения
Вы не можете удалять свои сообщения
Вы не можете голосовать в опросах
Вы не можете прикреплять файлы к сообщениям
Вы не можете скачивать файлы