Война братьев / Brother\'s War (Джери Бутейн / Jerry Buteyn) [2009, США, военный, история, BDRemux 1080p] MVO + Original Eng

Ответить на тему
 
Автор Сообщение

user ®

Стаж: 7 лет 7 месяцев

Сообщений: 20008

Пост Пост: #1 от 09-Сен-2015 20:15

[Цитировать]

Война братьев / Brother's War
Год выпуска: 2009
Страна: США
Жанр: военный, история
Продолжительность: 01:39:46
Перевод: Профессиональный (многоголосый, закадровый)
Русские субтитры: нет
Режиссер: Джери Бутейн / Jerry Buteyn
В ролях: Тино Струкманн, Майкл Берриман, Оливье Грюнер, Хейли Карр, Хью Дэйли, Джек Димич, Adam Leadbeater, Ти Олсон, Стив Холм, Дилан Кенин, Борис Киевский, Тайм Уинтерс, Джошуа Минник, Андреас Т. Рамани, Марк Доерр, Дэвид Эдельштейн, Энтони Витале, Джерри Бутейн, Брайан Мередит, Крис Капен, Джулиан Барнс, Стив Лондон, Kurt Mandzukic, Джефф Уркухарт, Christa Warthemann, Расселл Шульдт, Steve Effler, David Effler, Gunther Effler, Крис Рамирез, Сонни Салливан, David Aires, Peter Karavoulias, Anthony Ardisone, Роберт Клауд, Макс Ван Холт, John Sliskovich, Хэп Ринкер, Джеймс Уиллифорд, Лиза Бэйкер, Hans Beerbaum, Konrad Beerbaum, Max Beerbaum, Александр Картер, Фито Де Ла Парра, Matthew Gajkowski, Чарльз Голфф, Джонатан Хестер, Dennis Koraiskov, Мария Мэтьюз, Kenneth Miccio, Lance Miccio, Olympia Miccio, Yonni Rosenberg, Рик Шульдт, Эдди Андервуд
Описание: История происходит в последние дни Второй мировой войны на фоне ожесточенных боев на Восточном фронте. Западные союзники входят на территорию Германии, Красная Армия наступает на Берлин, а Черчилль волнуется по поводу послевоенных планов России относительно Европы.
Доп. информация:
Качество: BDRemux
Формат: MKV
Видео: VC-1 Video / 21.9 Mbps / 1080p / 23,976 fps / 16:9 / Advanced Profile 3
Аудио: Dolby Digital Audio Russian 5.1 / 48 kHz / 448 kbps
Аудио: DTS-HD Master Audio English 5.1 / 48 kHz / 1610 kbps / 16-bit (DTS Core: 5.1 / 48 kHz / 1509 kbps / 16-bit / DN -4dB)
MI
General
Unique ID : 202396928208943901945851550447309135860 (0x98443B000385621F89F42F44C0739FF4)
Complete name : F:\Bluray\Brothers.War.2009.1080p.Bluray.GER.VC1.Remux.mkv
Format : Matroska
File size : 17.0 GiB
Duration : 1h 39mn
Overall bit rate : 24.5 Mbps
Movie name : Brothers.at.War.2009.1080p.Bluray.GER.VC1.Remux
Encoded date : UTC 2011-05-27 09:36:30
Writing application : mkvmerge v4.8.0 ('I Got The...') сборка от May 24 2011 03:12:58
Writing library : libebml v1.2.0 + libmatroska v1.1.0
Video
ID : 1
Format : VC-1
Format profile : AP@L3
Codec ID : WVC1
Codec ID/Hint : Microsoft
Duration : 1h 39mn
Bit rate : 21.9 Mbps
Width : 1 920 pixels
Height : 1 080 pixels
Display aspect ratio : 16:9
Frame rate : 23.976 fps
Chroma subsampling : 4:2:0
Bit depth : 8 bits
Scan type : Progressive
Compression mode : Lossy
Bits/(Pixel*Frame) : 0.441
Stream size : 15.3 GiB (90%)
Title : uralmix
Audio #1
ID : 2
Format : AC-3
Format/Info : Audio Coding 3
Mode extension : CM (complete main)
Codec ID : A_AC3
Duration : 1h 39mn
Bit rate mode : Constant
Bit rate : 448 Kbps
Channel(s) : 6 channels
Channel positions : Front: L C R, Side: L R, LFE
Sampling rate : 48.0 KHz
Bit depth : 16 bits
Compression mode : Lossy
Stream size : 320 MiB (2%)
Language : Russian
Audio #2
ID : 3
Format : DTS
Format/Info : Digital Theater Systems
Format profile : MA / Core
Codec ID : A_DTS
Duration : 1h 39mn
Bit rate mode : Variable
Bit rate : 1 576 Kbps / 1 510 Kbps
Channel(s) : 6 channels
Channel positions : Front: L C R, Side: L R, LFE
Sampling rate : 48.0 KHz
Bit depth : 16 bits
Compression mode : Lossless / Lossy
Language : English
Menu
00:00:00.000 : en:00:00:00.000
00:07:59.938 : en:00:07:59.938
00:15:59.959 : en:00:15:59.959
00:23:59.938 : en:00:23:59.938
00:31:59.960 : en:00:31:59.960
00:39:59.981 : en:00:39:59.981
00:47:59.919 : en:00:47:59.919
00:55:59.898 : en:00:55:59.898
01:03:59.919 : en:01:03:59.919
01:11:59.941 : en:01:11:59.941
01:19:59.920 : en:01:19:59.920
01:27:59.858 : en:01:27:59.858
Скриншоты
Скачать

Скачать торрент!

Как скачивать? · Что такое торрент? · Рейтинг и ограничения

Сайт не распространяет и не хранит электронные версии произведений, а лишь предоставляет доступ к создаваемому пользователями каталогу ссылок на торрент-файлы, которые содержат только списки хеш-сумм

[Профиль] [ЛС]
Показать сообщения:    
Ответить на тему

Текущее время: Сегодня 03:50

Часовой пояс: GMT + 4



Вы не можете начинать темы
Вы не можете отвечать на сообщения
Вы не можете редактировать свои сообщения
Вы не можете удалять свои сообщения
Вы не можете голосовать в опросах
Вы не можете прикреплять файлы к сообщениям
Вы не можете скачивать файлы