Второе пришествие / Дважды умершая / Zong sheng / The Second Coming (Херман Яу / Herman Yau, Тинь Чи ЭнДжи / Ng Tin Chi) [2014, Гонконг, Сингапур, Тайвань, ужасы, фэнтези, триллер, HDRip] DVO (GREEN TEA)

Ответить на тему
 
Автор Сообщение

user ®

Стаж: 13 лет

Сообщений: 15071

Пост Пост: #1 от 09-Сен-2015 01:45

[Цитировать]

Второе пришествие / Дважды умершая / Zong sheng / The Second Coming
Страна: Гонконг, Сингапур, Тайвань
Студия: Imagine Nation Films, Scout Pictures
Жанр: ужасы, фэнтези, триллер
Год выпуска: 2014
Продолжительность: 01:26:44
Перевод: Любительский (двухголосый закадровый) GREEN TEA
Cубтитры: нет
Оригинальная аудиодорожка: нет
Режиссер: Херман Яу / Herman Yau, Тинь Чи ЭнДжи / Ng Tin Chi
В ролях: Мэгги Сиу, Так-бун Вонг, Джои Леонг, Кенни Вонг
Описание: Минг и его жена Джен жили тихой обычной жизнью со своей 13-летней дочерью Люси, пока их 20-летний сын Санни учился на врача заграницей. Однажды к Люси попадает странная баночка…
Релиз от -
Сэмпл: http://multi-up.com/1065605
Тип релиза: HDRip / [url=http://***/forum/viewtopic.php?t=5056901]BDRip 720p[/url]
Контейнер: AVI
Видео: XviD / 1062 Kbps / 688 х 288 pix / 23.976 fps
Аудио: MPEG Layer 3 / Russian / 2.0 / 48 kHz / 128 kbps

MediaInfo
General
Complete name : D:\The.Second.Coming.2014.HDRip.745mb.avi
Format : AVI
Format/Info : Audio Video Interleave
File size : 744 MiB
Duration : 1h 26mn
Overall bit rate : 1 199 Kbps
Writing application : VirtualDubMod 1.5.10.3 | www.virtualdub-fr.org || (build 2550/release)
Writing library : VirtualDubMod build 2550/release
Video
ID : 0
Format : MPEG-4 Visual
Format profile : Advanced Simple@L5
Format settings, BVOP : 1
Format settings, QPel : No
Format settings, GMC : No warppoints
Format settings, Matrix : Custom
Codec ID : XVID
Codec ID/Hint : XviD
Duration : 1h 26mn
Bit rate : 1 062 Kbps
Width : 688 pixels
Height : 288 pixels
Display aspect ratio : 2.40:1
Frame rate : 23.976 fps
Color space : YUV
Chroma subsampling : 4:2:0
Bit depth : 8 bits
Scan type : Progressive
Compression mode : Lossy
Bits/(Pixel*Frame) : 0.223
Stream size : 659 MiB (89%)
Writing library : XviD 73
Audio
ID : 1
Format : MPEG Audio
Format version : Version 1
Format profile : Layer 3
Codec ID : 55
Codec ID/Hint : MP3
Duration : 1h 26mn
Bit rate mode : Constant
Bit rate : 128 Kbps
Channel(s) : 2 channels
Sampling rate : 48.0 KHz
Compression mode : Lossy
Stream size : 79.4 MiB (11%)
Alignment : Aligned on interleaves
Interleave, duration : 42 ms (1.00 video frame)
Interleave, preload duration : 504 ms
Writing library : LAME3.99r
Encoding settings : -m s -V 4 -q 2 -lowpass 17 -b 128
Скриншоты
Скачать

Скачать торрент! Второе пришествие / Дважды умершая / Zong sheng / The Second Coming (Херман Яу / Herman Yau, Тинь Чи ЭнДжи / Ng Tin Chi) [2014, Гонконг, Сингапур, Тайвань, ужасы, фэнтези, триллер, HDRip] DVO (GREEN TEA)

Как скачивать? · Что такое торрент? · Рейтинг и ограничения

Сайт не распространяет и не хранит электронные версии произведений, а лишь предоставляет доступ к создаваемому пользователями каталогу ссылок на торрент-файлы, которые содержат только списки хеш-сумм

[Профиль] [ЛС]
Показать сообщения:    
Ответить на тему

Текущее время: Сегодня 20:57

Часовой пояс: GMT + 4



Вы не можете начинать темы
Вы не можете отвечать на сообщения
Вы не можете редактировать свои сообщения
Вы не можете удалять свои сообщения
Вы не можете голосовать в опросах
Вы не можете прикреплять файлы к сообщениям
Вы не можете скачивать файлы