Тени прошлого / Теневой человек / Shadow Man (Майкл Койш / Michael Keusch) [2006, США, Великобритания, Румыния, боевик, триллер, WEB-DL 720p] 2x MVO + Sub Eng + Original Eng

Ответить на тему
 
Автор Сообщение

user ®

Стаж: 7 лет 7 месяцев

Сообщений: 20008

Пост Пост: #1 от 08-Сен-2015 16:27

[Цитировать]

Тени прошлого / Теневой человек / Shadow Man
Страна: США, Великобритания, Румыния
Студия: Sony Pictures Home Entertainment, Castel Film Romania, Clubdeal
Жанр: боевик, триллер
Год выпуска: 2006
Продолжительность: 01:35:35
Перевод 1: Профессиональный (многоголосый закадровый)
Перевод 2: Профессиональный (многоголосый закадровый) ВГТРК
Cубтитры: английские
Оригинальная аудиодорожка: английский
Режиссер: Майкл Койш / Michael Keusch
В ролях: Стивен Сигал, Ева Поуп, Имелда Стонтон, Винсент Риотта, Майкл Элвин, Скай Беннетт, Гаррик Хэгон, Алекс Фернс, Майкл Фицпатрик, Elias Ferkin…
Описание: Бывший правительственный шпион Джек Фостер пытается жить тихой спокойной жизнью со своей маленькой дочкой Амандой. Но запланированное путешествие прерывается самым жестоким образом, и девочку похищает таинственная дама в такси. Зато рядом неожиданно появляется старый приятель Джека из ЦРУ. Вместе с ним отчаявшийся отец пытается найти ребенка, временно забыв простую истину о том, что в мире шпионажа нельзя доверять никому…
II Сэмпл II IMDB II
Доп. информация:
Первая дорога взята с раздачи PashaGold
За перевод ВГТРК спасибо max1wq
Тип релиза: WEB-DL 720p
Контейнер: MKV
Видео: AVC / 1280x688 / 1.86:1 / 23.976fps / Bit rate 3986Kbps
Аудио 1: AC3 / 48.0 KHz / 6ch. / 448kbps / rus / mvo
Аудио 2: AC3 / 48.0 KHz / 2ch. / 192kbps / rus / mvo / ВГТРК
Аудио 3: AC3 / 48.0 KHz / 6ch. / 384kbps / eng
Формат субтитров: softsub (SRT)
MediaInfo
Общее
Уникальный идентификатор : 178109029060489437911529876277060961367 (0x85FE8D1E4878A9159E551BDA821C0457)
Полное имя : G:\!!!_torrent\Shadow.Man.2006.WEB-DL.720p_by_vedigo.mkv
Формат : Matroska
Версия формата : Version 4 / Version 2
Размер файла : 3,41 Гбайт
Продолжительность : 1 ч. 35 м.
Общий поток : 5112 Кбит/сек
Название фильма : Shadow.Man.2006.WEB-DL.720p_by_vedigo
Дата кодирования : UTC 2015-09-03 01:17:24
Программа кодирования : mkvmerge v8.3.0 ('Over the Horizon') 64bit
Библиотека кодирования : libebml v1.3.1 + libmatroska v1.4.2
DURATION : 01:31:11.992000000
NUMBER_OF_FRAMES : 1031
NUMBER_OF_BYTES : 29984
_STATISTICS_WRITING_APP : mkvmerge v8.3.0 ('Over the Horizon') 64bit
_STATISTICS_WRITING_DATE_UTC : 2015-09-03 01:17:24
_STATISTICS_TAGS : BPS DURATION NUMBER_OF_FRAMES NUMBER_OF_BYTES
Видео
Идентификатор : 1
Формат : AVC
Формат/Информация : Advanced Video Codec
Профиль формата : High@L3.1
Параметр CABAC формата : Нет
Параметр ReFrames формата : 2 кадра
Идентификатор кодека : V_MPEG4/ISO/AVC
Продолжительность : 1 ч. 35 м.
Битрейт : 3986 Кбит/сек
Ширина : 1280 пикселей
Высота : 688 пикселей
Соотношение сторон : 1,85:1
Режим частоты кадров : Постоянный
Частота кадров : 23,976 кадра/сек
Цветовое пространство : YUV
Субдискретизация насыщенности : 4:2:0
Битовая глубина : 8 бит
Тип развёртки : Прогрессивная
Бит/(Пиксели*Кадры) : 0.189
Размер потока : 2,66 Гбайт (78%)
Заголовок : Shadow.Man.2006.WEB-DL.720p_by_vedigo
Default : Да
Forced : Нет
Цветовой диапазон : Limited
Основные цвета : BT.709
Характеристики трансфера : BT.709
Коэффициенты матрицы : BT.709
Аудио #1
Идентификатор : 2
Формат : AC-3
Формат/Информация : Audio Coding 3
Расширение режима : CM (complete main)
Параметр Endianness формата : Big
Идентификатор кодека : A_AC3
Продолжительность : 1 ч. 35 м.
Вид битрейта : Постоянный
Битрейт : 448 Кбит/сек
Каналы : 6 каналов
Расположение каналов : Front: L C R, Side: L R, LFE
Частота : 48,0 КГц
Метод сжатия : С потерями
Размер потока : 306 Мбайт (9%)
Заголовок : MVO
Язык : Russian
Default : Да
Forced : Нет
Аудио #2
Идентификатор : 3
Формат : AC-3
Формат/Информация : Audio Coding 3
Расширение режима : CM (complete main)
Параметр Endianness формата : Big
Идентификатор кодека : A_AC3
Продолжительность : 1 ч. 35 м.
Вид битрейта : Постоянный
Битрейт : 192 Кбит/сек
Каналы : 2 канала
Расположение каналов : Front: L R
Частота : 48,0 КГц
Метод сжатия : С потерями
Размер потока : 131 Мбайт (4%)
Заголовок : MVO @ ВГТРК
Язык : Russian
Default : Нет
Forced : Нет
Аудио #3
Идентификатор : 4
Формат : AC-3
Формат/Информация : Audio Coding 3
Расширение режима : CM (complete main)
Параметр Endianness формата : Big
Идентификатор кодека : A_AC3
Продолжительность : 1 ч. 35 м.
Вид битрейта : Постоянный
Битрейт : 384 Кбит/сек
Каналы : 6 каналов
Расположение каналов : Front: L C R, Side: L R, LFE
Частота : 48,0 КГц
Метод сжатия : С потерями
Размер потока : 263 Мбайт (8%)
Заголовок : original
Язык : English
Default : Нет
Forced : Нет
Текст
Идентификатор : 5
Формат : UTF-8
Идентификатор кодека : S_TEXT/UTF8
Идентификатор кодека/Информация : UTF-8 Plain Text
Заголовок : subtitle eng
Язык : English
Default : Нет
Forced : Нет
Меню
00:00:00.000 : en:Start
00:08:38.000 : en:Blow Up
00:16:47.000 : en:A Matter Of Trust
00:23:31.000 : en:Nervous People
00:30:48.000 : en:Here To Help
00:38:17.000 : en:Losing Patience
00:45:37.000 : en:Getting Desperate
00:54:29.000 : en:All About My Daughter
01:02:44.000 : en:Standoff
01:12:16.000 : en:Friends And Relatives
01:21:12.000 : en:The Item
01:29:07.000 : en:My Word Is Good
Скриншоты
Скачать

Скачать торрент!

Как скачивать? · Что такое торрент? · Рейтинг и ограничения

Сайт не распространяет и не хранит электронные версии произведений, а лишь предоставляет доступ к создаваемому пользователями каталогу ссылок на торрент-файлы, которые содержат только списки хеш-сумм

[Профиль] [ЛС]
Показать сообщения:    
Ответить на тему

Текущее время: Сегодня 18:25

Часовой пояс: GMT + 4



Вы не можете начинать темы
Вы не можете отвечать на сообщения
Вы не можете редактировать свои сообщения
Вы не можете удалять свои сообщения
Вы не можете голосовать в опросах
Вы не можете прикреплять файлы к сообщениям
Вы не можете скачивать файлы