Экстрасенс 2: Лабиринты разума / Mindscape (Хорхе С. Дорадо / Jorge Dorado) [2013, США, Испания, Франция, триллер, драма, BDRip 720p] Dub + Sub Rus, Eng + Original Eng

Ответить на тему
 
Автор Сообщение

user ®

Стаж: 7 лет 7 месяцев

Сообщений: 20008

Пост Пост: #1 от 08-Сен-2015 13:21

[Цитировать]

Экстрасенс 2: Лабиринты разума / Mindscape
Страна: США, Испания, Франция
Студия: StudioCanal, Warner Bros. Entertainment
Жанр: триллер, драма
Год выпуска: 2013
Продолжительность: 01:38:50
Перевод: Профессиональный (дублированный)
Cубтитры: Rus, Eng
Оригинальная аудиодорожка: английский
Режиссер: Хорхе С. Дорадо / Jorge Dorado
В ролях: Таисса Фармига, Марк Стронг, Брайан Кокс, Индира Варма, Ноа Тейлор, Джессика Барден, Антония Кларк, Саския Ривз, Клер Кэлбрайт, Род Халлетт
Описание: Джон — человек, обладающий паранормальными способностями, расследует новое дело. В этот раз ему предстоит общение с 16 летней напуганной девушкой, и главному герою предстоит ответить на вопрос — кто такая Анна? Жертва обстоятельств или убийца-социопат?

Тип релиза: BDRip 720p
Контейнер: MKV
Видео: MPEG-4 AVC, 9392 Кбит/с, 1280x538, 23,976 fps
Аудио: Rus, AC3, 384 kb/s (6 ch), 48 kHz
Аудио 2: Eng, AC3, 640 kb/s (6 ch), 48 kHz
Формат субтитров: softsub (SRT)
MediaInfo
x264 [info]: frame I:1257 Avg QP:14.47 size:119895
x264 [info]: frame P:25818 Avg QP:14.92 size: 74318
x264 [info]: frame B:115125 Avg QP:16.14 size: 43849
x264 [info]: consecutive B-frames: 1.4% 1.4% 3.1% 9.7% 11.8% 47.5% 11.8% 6.3% 7.2%
Format : Matroska
Format version : Version 4 / Version 2
File size : 7.34 GiB
Duration : 1h 38mn
Overall bit rate : 10.6 Mbps
Movie name : Экстрасенс 2: Лабиринты разума. (Tonik)
Encoded date : UTC 2015-09-02 10:26:08
Writing application : mkvmerge v7.1.0 ('Good Love') 64bit built on Jul 27 2014 13:06:55
Writing library : libebml v1.3.0 + libmatroska v1.4.1
DURATION : 01:32:24.130000000
NUMBER_OF_FRAMES : 961
NUMBER_OF_BYTES : 60398
_STATISTICS_WRITING_APP : mkvmerge v7.1.0 ('Good Love') 64bit built on Jul 27 2014 13:06:55
_STATISTICS_WRITING_DATE_UTC : 2015-09-02 10:26:08
_STATISTICS_TAGS : BPS DURATION NUMBER_OF_FRAMES NUMBER_OF_BYTES
Video
ID : 1
Format : AVC
Format/Info : Advanced Video Codec
Format profile : High@L4.1
Format settings, CABAC : Yes
Format settings, ReFrames : 12 frames
Codec ID : V_MPEG4/ISO/AVC
Duration : 1h 38mn
Bit rate : 9 392 Kbps
Width : 1 280 pixels
Height : 538 pixels
Display aspect ratio : 2.40:1
Frame rate mode : Constant
Frame rate : 23.976 fps
Color space : YUV
Chroma subsampling : 4:2:0
Bit depth : 8 bits
Scan type : Progressive
Bits/(Pixel*Frame) : 0.569
Stream size : 6.48 GiB (88%)
Writing library : x264 core 142 r2409+41 9f37d41 tMod [8-bit@4:2:0 X86_64]
Encoding settings : cabac=1 / ref=12 / deblock=1:-3:-3 / analyse=0x3:0x133 / me=umh / subme=10 / psy=1 / fade_compensate=0.00 / psy_rd=1.20:0.00 / mixed_ref=1 / me_range=16 / chroma_me=1 / trellis=2 / 8x8dct=1 / cqm=0 / deadzone=21,11 / fast_pskip=0 / chroma_qp_offset=-2 / threads=6 / lookahead_threads=1 / sliced_threads=0 / nr=0 / decimate=0 / interlaced=0 / bluray_compat=0 / constrained_intra=0 / fgo=0 / bframes=8 / b_pyramid=2 / b_adapt=2 / b_bias=0 / direct=3 / weightb=1 / open_gop=0 / weightp=2 / keyint=250 / keyint_min=23 / scenecut=40 / intra_refresh=0 / rc_lookahead=60 / rc=crf / mbtree=0 / crf=19.0000 / qcomp=0.60 / qpmin=0:0:0 / qpmax=69:69:69 / qpstep=4 / vbv_maxrate=20000 / vbv_bufsize=15000 / crf_max=0.0 / nal_hrd=none / filler=0 / ip_ratio=1.30 / pb_ratio=1.20 / aq=1:0.60 / aq-sensitivity=10.00 / aq-factor=1.00:1.00:1.00 / aq2=1:0.80 / aq2-sensitivity=7.50 / aq2-factor=1.00:1.00:1.00 / aq3=1:[0.80:0.80]:[0.80:0.80]:[0.80:0.80]:[0.80:0.80] / aq3-sensitivity=7.50 / aq3-factor=[1.00:1.00]:[1.00:1.00]:[1.00:1.00] / aq3-boundary=205:56:9
Language : English
Default : No
Forced : No
DURATION : 01:38:50.925000000
NUMBER_OF_FRAMES : 142200
NUMBER_OF_BYTES : 7117577475
_STATISTICS_WRITING_APP : mkvmerge v7.1.0 ('Good Love') 64bit built on Jul 27 2014 13:06:55
_STATISTICS_WRITING_DATE_UTC : 2015-09-02 10:26:08
_STATISTICS_TAGS : BPS DURATION NUMBER_OF_FRAMES NUMBER_OF_BYTES
Audio #1
ID : 2
Format : AC-3
Format/Info : Audio Coding 3
Mode extension : CM (complete main)
Format settings, Endianness : Big
Codec ID : A_AC3
Duration : 1h 38mn
Bit rate mode : Constant
Bit rate : 384 Kbps
Channel(s) : 6 channels
Channel positions : Front: L C R, Side: L R, LFE
Sampling rate : 48.0 KHz
Bit depth : 16 bits
Compression mode : Lossy
Stream size : 271 MiB (4%)
Language : Russian
Default : Yes
Forced : No
Audio #2
ID : 3
Format : AC-3
Format/Info : Audio Coding 3
Mode extension : CM (complete main)
Format settings, Endianness : Big
Codec ID : A_AC3
Duration : 1h 38mn
Bit rate mode : Constant
Bit rate : 640 Kbps
Channel(s) : 6 channels
Channel positions : Front: L C R, Side: L R, LFE
Sampling rate : 48.0 KHz
Bit depth : 16 bits
Compression mode : Lossy
Stream size : 452 MiB (6%)
Language : English
Default : No
Forced : No
Text #1
ID : 4
Format : UTF-8
Codec ID : S_TEXT/UTF8
Codec ID/Info : UTF-8 Plain Text
Language : Russian
Default : No
Forced : No
Text #2
ID : 5
Format : UTF-8
Codec ID : S_TEXT/UTF8
Codec ID/Info : UTF-8 Plain Text
Language : English
Default : No
Forced : No
Menu
00:00:00.000 : en:Chapter 1
00:10:35.969 : en:Chapter 2
00:20:33.190 : en:Chapter 3
00:32:07.884 : en:Chapter 4
00:40:50.782 : en:Chapter 5
00:50:19.225 : en:Chapter 6
01:01:31.855 : en:Chapter 7
01:13:17.018 : en:Chapter 8
01:24:40.742 : en:Chapter 9
Скриншоты
Скачать

Скачать торрент!

Как скачивать? · Что такое торрент? · Рейтинг и ограничения

Сайт не распространяет и не хранит электронные версии произведений, а лишь предоставляет доступ к создаваемому пользователями каталогу ссылок на торрент-файлы, которые содержат только списки хеш-сумм

[Профиль] [ЛС]
Показать сообщения:    
Ответить на тему

Текущее время: Сегодня 04:19

Часовой пояс: GMT + 4



Вы не можете начинать темы
Вы не можете отвечать на сообщения
Вы не можете редактировать свои сообщения
Вы не можете удалять свои сообщения
Вы не можете голосовать в опросах
Вы не можете прикреплять файлы к сообщениям
Вы не можете скачивать файлы