Связь / Когерентность / Coherence (Джеймс Уорд Биркит / James Ward Byrkit) [2013, США, фантастика, триллер, BDRip 720p] VO + Original Eng + Sub (Rus, Eng)

Ответить на тему
 
Автор Сообщение

user ®

Стаж: 7 лет 7 месяцев

Сообщений: 20008

Пост Пост: #1 от 08-Сен-2015 13:21

[Цитировать]

Связь / Когерентность / Coherence- Страна: США
Жанр: Триллер, Фантастика
Год выпуска: 2013
Продолжительность: 01:27:52
Перевод: Одноголосый закадровый
Cубтитры: русские, английские
Оригинальная аудиодорожка: английский-Режиссер: Джеймс Уорд Биркит / James Ward Byrkit
В ролях: Эмили Бальдони, Мори Стерлинг, Николас Брендон, Элизабет Грэйсен, Алекс Манугян, Лорен Мехер, Хьюго Армстронг, Лорин Скафария-Описание: Появление несколько лет назад в небе необычно яркой кометы сопровождалось множеством свидетельств о необычных и даже мистических событиях, происходивших по всей Земле. Именно рассказы об этих странных происшествиях становятся главной темой разговоров для восьми друзей, собравшихся на званый ужин. Герои фильма еще не знают, что этим вечером, когда над их головами пройдет еще одна загадочная комета, они сами станут свидетелями удивительных физических аномалий, ставящих под сомнения все наши научные представления о вселенной...- -Качество видео: BDRip 720p (исх. BDRemux)
Формат видео: MKV
Видео: x.264, 1280x548, 4995 Kbps, 24.000 fps, 0.297 bpf
Аудио 1: AC3, 384 Kbps, 5.1 channels, 48000 Hz - VO
Аудио 2: DTS, 1509 Kbps, 5.1 channels, 48000 Hz - ENG
Аудио 3: AC3, 224 Kbps, 2.0 channels, 48000 Hz - Commentary
Формат субтитров: softsub (SRT) - русские, английские-Скриншоты
-
Резервные скриншоты
-
MediaInfo
Format : Matroska
Format version : Version 4 / Version 2
File size : 4.37 GiB
Duration : 1h 27mn
Overall bit rate : 7 116 Kbps
Movie name : Связь / Coherence (2013) BDRip 720p [RG Torrents.ru]
Encoded date : UTC 2015-08-23 18:16:13
Writing application : mkvmerge v7.8.0 ('River Man') 32bit built on Mar 27 2015 16:18:02
Writing library : libebml v1.3.1 + libmatroska v1.4.2
Attachment : Yes
Video
ID : 1
Format : AVC
Format/Info : Advanced Video Codec
Format profile : High@L4.1
Format settings, CABAC : Yes
Format settings, ReFrames : 9 frames
Codec ID : V_MPEG4/ISO/AVC
Duration : 1h 27mn
Bit rate : 4 995 Kbps
Width : 1 280 pixels
Height : 548 pixels
Display aspect ratio : 2.35:1
Frame rate mode : Constant
Frame rate : 24.000 fps
Color space : YUV
Chroma subsampling : 4:2:0
Bit depth : 8 bits
Scan type : Progressive
Bits/(Pixel*Frame) : 0.297
Stream size : 2.98 GiB (68%)
Writing library : x264 core 148 r2579 73ae2d1
Encoding settings : cabac=1 / ref=9 / deblock=1:-3:-3 / analyse=0x3:0x113 / me=umh / subme=10 / psy=1 / psy_rd=1.05:0.10 / mixed_ref=1 / me_range=24 / chroma_me=1 / trellis=2 / 8x8dct=1 / cqm=0 / deadzone=21,11 / fast_pskip=0 / chroma_qp_offset=-3 / threads=3 / lookahead_threads=1 / sliced_threads=0 / nr=0 / decimate=1 / interlaced=0 / bluray_compat=0 / constrained_intra=0 / bframes=8 / b_pyramid=2 / b_adapt=2 / b_bias=0 / direct=3 / weightb=1 / open_gop=0 / weightp=2 / keyint=240 / keyint_min=24 / scenecut=40 / intra_refresh=0 / rc_lookahead=60 / rc=2pass / mbtree=0 / bitrate=4995 / ratetol=1.0 / qcomp=0.70 / qpmin=0 / qpmax=69 / qpstep=4 / cplxblur=20.0 / qblur=0.5 / vbv_maxrate=50000 / vbv_bufsize=62500 / nal_hrd=none / filler=0 / ip_ratio=1.40 / pb_ratio=1.30 / aq=2:1.00
Language : English
Default : Yes
Forced : No
Audio #1
ID : 2
Format : AC-3
Format/Info : Audio Coding 3
Mode extension : CM (complete main)
Format settings, Endianness : Big
Codec ID : A_AC3
Duration : 1h 27mn
Bit rate mode : Constant
Bit rate : 384 Kbps
Channel(s) : 6 channels
Channel positions : Front: L C R, Side: L R, LFE
Sampling rate : 48.0 KHz
Bit depth : 16 bits
Compression mode : Lossy
Stream size : 241 MiB (5%)
Title : VO
Language : Russian
Default : Yes
Forced : No
Audio #2
ID : 3
Format : DTS
Format/Info : Digital Theater Systems
Mode : 16
Format settings, Endianness : Big
Codec ID : A_DTS
Duration : 1h 27mn
Bit rate mode : Constant
Bit rate : 1 509 Kbps
Channel(s) : 6 channels
Channel positions : Front: L C R, Side: L R, LFE
Sampling rate : 48.0 KHz
Bit depth : 16 bits
Compression mode : Lossy
Stream size : 948 MiB (21%)
Language : English
Default : No
Forced : No
Audio #3
ID : 4
Format : AC-3
Format/Info : Audio Coding 3
Mode extension : CM (complete main)
Format settings, Endianness : Big
Codec ID : A_AC3
Duration : 1h 27mn
Bit rate mode : Constant
Bit rate : 224 Kbps
Channel(s) : 2 channels
Channel positions : Front: L R
Sampling rate : 48.0 KHz
Bit depth : 16 bits
Compression mode : Lossy
Stream size : 141 MiB (3%)
Title : Commentary
Language : English
Default : No
Forced : No
Text #1
ID : 5
Format : UTF-8
Codec ID : S_TEXT/UTF8
Codec ID/Info : UTF-8 Plain Text
Language : Russian
Default : No
Forced : No
Text #2
ID : 6
Format : UTF-8
Codec ID : S_TEXT/UTF8
Codec ID/Info : UTF-8 Plain Text
Language : English
Default : No
Forced : No
Скачать

Скачать торрент!

Как скачивать? · Что такое торрент? · Рейтинг и ограничения

Сайт не распространяет и не хранит электронные версии произведений, а лишь предоставляет доступ к создаваемому пользователями каталогу ссылок на торрент-файлы, которые содержат только списки хеш-сумм

[Профиль] [ЛС]
Показать сообщения:    
Ответить на тему

Текущее время: Сегодня 07:52

Часовой пояс: GMT + 4



Вы не можете начинать темы
Вы не можете отвечать на сообщения
Вы не можете редактировать свои сообщения
Вы не можете удалять свои сообщения
Вы не можете голосовать в опросах
Вы не можете прикреплять файлы к сообщениям
Вы не можете скачивать файлы