Чужая страна / Strangerland (Ким Фаррант / Kim Farrant) [2015, Австралия, Ирландия, триллер, драма, BDRip 1080p] VO (RAIM) + 2x Sub (Eng) + Original Eng

Ответить на тему
 
Автор Сообщение

user ®

Стаж: 7 лет 7 месяцев

Сообщений: 20008

Пост Пост: #1 от 08-Сен-2015 13:21

[Цитировать]

Чужая страна / Strangerland
Страна: Австралия, Ирландия
Жанр: триллер, драма
Год выпуска: 2015
Продолжительность: 01:51:44
Перевод: Одноголосый закадровый RAIM
Cубтитры: английские [Full, SDH]
Оригинальная аудиодорожка: английский
-
Режиссер: Ким Фаррант / Kim Farrant
В ролях: Николь Кидман, Хьюго Уивинг, Джозеф Файнс, Шон Кинэн, Мэддисон Браун, Николас Хэмилтон, Мейн Уайат, Бенедикт Харди, Мартин Дингл Уолл, Тейлор Фергюсон
-
Описание: Сюжет фильма о том, как у семейной пары Кэтрин и Мэтью Паркеров исчезли в австралийской пустыне двое детей-подростков, и родители пытаются их найти всеми немыслимыми способами. А вот с чем они столкнутся, пытаясь вернуть своих детей? Возможно их съели динго? Или какая-то тайна тянется из их детства?

Тип релиза: BDRip 1080p
Контейнер: MKV
Видео: H.264 / NTSC 16:9 / 1920x804 (2,40:1) / 14553 kbps / 23,976 fps / 0.384 bit/pixel / High@L4.1
Аудио 1: Russian / AC3 / 48 kHz / 5.1 Ch / 448 kbps / 16 bit / VO
Аудио 2: English / DTS / 48 kHz / 5.1 Ch / 1509 kbps / 24 bit / Original
Формат субтитров: softsub (SRT)
Навигация по главам: есть

Сэмпл MediaInfo
Общее
Уникальный идентификатор : 231110227701452216329417882175562606852 (0xADDE35F6E2ECF30F9AD3A0402AE46904)
Полное имя : N:\BDRip 1080p\Strangerland.2015.BDRip.1080p.mkv
Формат : Matroska
Версия формата : Version 4 / Version 2
Размер файла : 12,9 Гбайт
Продолжительность : 1 ч. 51 м.
Общий поток : 16,5 Мбит/сек
Дата кодирования : UTC 2015-09-02 14:06:09
Программа кодирования : mkvmerge v8.3.0 ('Over the Horizon') 64bit
Библиотека кодирования : libebml v1.3.1 + libmatroska v1.4.2
DURATION : 01:46:38.683000000
NUMBER_OF_FRAMES : 1107
NUMBER_OF_BYTES : 27511
_STATISTICS_WRITING_APP : mkvmerge v8.3.0 ('Over the Horizon') 64bit
_STATISTICS_WRITING_DATE_UTC : 2015-09-02 14:06:09
_STATISTICS_TAGS : BPS DURATION NUMBER_OF_FRAMES NUMBER_OF_BYTES
Видео
Идентификатор : 1
Формат : AVC
Формат/Информация : Advanced Video Codec
Профиль формата : High@L4.1
Параметр CABAC формата : Да
Параметр ReFrames формата : 5 кадров
Идентификатор кодека : V_MPEG4/ISO/AVC
Продолжительность : 1 ч. 51 м.
Битрейт : 14,2 Мбит/сек
Ширина : 1920 пикселей
Высота : 804 пикселя
Соотношение сторон : 2,40:1
Режим частоты кадров : Постоянный
Частота кадров : 23,976 кадра/сек
Цветовое пространство : YUV
Субдискретизация насыщенности : 4:2:0
Битовая глубина : 8 бит
Тип развёртки : Прогрессивная
Бит/(Пиксели*Кадры) : 0.384
Размер потока : 11,1 Гбайт (86%)
Библиотека кодирования : x264 core 148 r2579kMod 73ae2d1
Настройки программы : cabac=1 / ref=5 / deblock=1:-2:-2 / analyse=0x3:0x113 / me=umh / subme=11 / psy=1 / fade_compensate=0.00 / psy_rd=1.05:0.00 / mixed_ref=1 / me_range=24 / chroma_me=1 / trellis=2 / 8x8dct=1 / cqm=0 / deadzone=21,11 / fast_pskip=0 / chroma_qp_offset=-2 / threads=12 / lookahead_threads=2 / sliced_threads=0 / nr=0 / decimate=1 / interlaced=0 / bluray_compat=0 / constrained_intra=0 / fgo=0 / bframes=8 / b_pyramid=2 / b_adapt=2 / b_bias=0 / direct=1 / weightb=1 / open_gop=0 / weightp=2 / keyint=250 / keyint_min=23 / scenecut=40 / intra_refresh=0 / rc_lookahead=40 / rc=crf / mbtree=0 / crf=16.0000 / qcomp=0.60 / qpmin=0 / qpmax=69 / qpstep=4 / vbv_maxrate=62500 / vbv_bufsize=78125 / crf_max=0.0 / nal_hrd=none / filler=0 / ip_ratio=1.30 / pb_ratio=1.20 / aq=1:0.70 / zones=142314,144262,crf=14
Язык : English
Default : Да
Forced : Нет
DURATION : 01:51:44.657000000
NUMBER_OF_FRAMES : 160751
NUMBER_OF_BYTES : 12196674561
_STATISTICS_WRITING_APP : mkvmerge v8.3.0 ('Over the Horizon') 64bit
_STATISTICS_WRITING_DATE_UTC : 2015-09-02 14:06:09
_STATISTICS_TAGS : BPS DURATION NUMBER_OF_FRAMES NUMBER_OF_BYTES
Аудио #1
Идентификатор : 2
Формат : AC-3
Формат/Информация : Audio Coding 3
Расширение режима : CM (complete main)
Параметр Endianness формата : Big
Идентификатор кодека : A_AC3
Продолжительность : 1 ч. 51 м.
Вид битрейта : Постоянный
Битрейт : 448 Кбит/сек
Каналы : 6 каналов
Расположение каналов : Front: L C R, Side: L R, LFE
Частота : 48,0 КГц
Битовая глубина : 16 бит
Метод сжатия : С потерями
Размер потока : 358 Мбайт (3%)
Заголовок : VO / RAIM
Язык : Russian
Default : Да
Forced : Нет
Аудио #2
Идентификатор : 3
Формат : DTS
Формат/Информация : Digital Theater Systems
Режим : 16
Параметр Endianness формата : Big
Идентификатор кодека : A_DTS
Продолжительность : 1 ч. 51 м.
Вид битрейта : Постоянный
Битрейт : 1509 Кбит/сек
Каналы : 6 каналов
Расположение каналов : Front: L C R, Side: L R, LFE
Частота : 48,0 КГц
Битовая глубина : 24 бит
Метод сжатия : С потерями
Размер потока : 1,18 Гбайт (9%)
Заголовок : Original
Язык : English
Default : Нет
Forced : Нет
Текст #1
Идентификатор : 4
Формат : UTF-8
Идентификатор кодека : S_TEXT/UTF8
Идентификатор кодека/Информация : UTF-8 Plain Text
Заголовок : Original
Язык : English
Default : Нет
Forced : Нет
Текст #2
Идентификатор : 5
Формат : UTF-8
Идентификатор кодека : S_TEXT/UTF8
Идентификатор кодека/Информация : UTF-8 Plain Text
Заголовок : Original / SDH
Язык : English
Default : Нет
Forced : Нет
Меню
00:00:00.000 : en:00:00:00.000
00:21:29.288 : en:00:21:29.288
00:38:05.283 : en:00:38:05.283
00:50:12.927 : en:00:50:12.927
01:02:51.309 : en:01:02:51.309
01:15:53.841 : en:01:15:53.841
01:36:14.185 : en:01:36:14.185
01:47:47.086 : en:01:47:47.086
Скриншоты
Скачать

Скачать торрент!

Как скачивать? · Что такое торрент? · Рейтинг и ограничения

Сайт не распространяет и не хранит электронные версии произведений, а лишь предоставляет доступ к создаваемому пользователями каталогу ссылок на торрент-файлы, которые содержат только списки хеш-сумм

[Профиль] [ЛС]
Показать сообщения:    
Ответить на тему

Текущее время: Сегодня 05:57

Часовой пояс: GMT + 4



Вы не можете начинать темы
Вы не можете отвечать на сообщения
Вы не можете редактировать свои сообщения
Вы не можете удалять свои сообщения
Вы не можете голосовать в опросах
Вы не можете прикреплять файлы к сообщениям
Вы не можете скачивать файлы