Шпион / Spy (Пол Фиг / Paul Feig) [2015, США, Боевик, комедия, криминал, WEB-DLRip] [Расширенная версия / Extended cut] Dub (iTunes)

Ответить на тему
 
Автор Сообщение

user ®

Стаж: 7 лет 7 месяцев

Сообщений: 20008

Пост Пост: #1 от 08-Сен-2015 07:09

[Цитировать]

Шпион / Spy
«Одна из пижонов. Одна из шпионов»
- Год выпуска: 2015
Выпущено: США / Twentieth Century Fox
Жанр: боевик, комедия, криминал
Продолжительность: 02:10:50
Перевод: Профессиональный (полное дублирование)
Cубтитры: нет-Режиссер:
Пол Фиг / Paul Feig-В ролях:
Мелисса МакКарти (Susan Cooper), Джейсон Стэйтем (Rick Ford), Джуд Лоу (Bradley Fine), Роуз Бирн (Rayna Boyanov), Миранда Харт (Nancy B. Artingstall), Бобби Каннавале (Sergio De Luca), Морена Баккарин (Karen Walker), Питер Серафинович (Aldo), Эллисон Дженни (Elaine Crocker), Ричард Брэйк (Solsa Dudaev)-Описание:
Сьюзан Купер всю свою жизнь мечтала стать секретным агентом и даже устроилась работать в ЦРУ. Однако, дальше сотрудника самой низкой ступени ей так и не удалось продвинуться. Понимая, что осуществить свою мечту практически невозможно, она все-таки продолжает надеяться на лучшее и с нетерпением ожидает своего шанса. И вскоре судьба дарит ей такую возможность. Лучший агент проваливает секретное задание, в ходе которого он должен был выяснить местонахождение ядерной бомбы, но, совершенно случайно, застрелил единственного человека, владеющего этой информацией. Через некоторое время службе разведки становится известно, что Рейна Боянова знает, где находится бомба, но она также знает в лицо всех секретных агентов ЦРУ. Теперь у руководства не остается другого выбора, как воспользоваться услугами Сьюзан Купер, но сможет ли она справиться со столь сложной миссией?..-Релиз групп [url=http://***/forum/viewtopic.php?t=1677970] [/url] | | IMDB | КиноПоиск | Сэмпл |-Качество: WEB-DLRip [WEB-DL | 1080p | BLUEBIRD]
Формат: AVI
Видео: 720x304 (2.37:1), 23.976 fps, XviD build 73 ~1204 kbps avg, 0.23 bit/pixel
Аудио: 48 kHz, AC3 Dolby Digital, 3/2 (L,C,R,l,r) + LFE ch, ~384.00 kbps avg - iTunes Russia
-Скриншоты MediaInfo
General
Complete name                            : D:\Shpion_2015_WEB-DLRip_iT_[Extended_Cut]_by_Dalemake.avi
Format                                   : AVI
Format/Info                              : Audio Video Interleave
File size                                : 1.46 GiB
Duration                                 : 2h 10mn
Overall bit rate                         : 1 597 Kbps
Writing application                      : VirtualDubMod 1.5.10.3 | www.virtualdub-fr.org || (build 2550/release)
Writing library                          : VirtualDubMod build 2550/release
Video
ID                                       : 0
Format                                   : MPEG-4 Visual
Format profile                           : Advanced Simple@L5
Format settings, BVOP                    : 1
Format settings, QPel                    : No
Format settings, GMC                     : No warppoints
Format settings, Matrix                  : Custom
Codec ID                                 : XVID
Codec ID/Hint                            : XviD
Duration                                 : 2h 10mn
Bit rate                                 : 1 205 Kbps
Width                                    : 720 pixels
Height                                   : 304 pixels
Display aspect ratio                     : 2.35:1
Frame rate                               : 23.976 fps
Color space                              : YUV
Chroma subsampling                       : 4:2:0
Bit depth                                : 8 bits
Scan type                                : Progressive
Compression mode                         : Lossy
Bits/(Pixel*Frame)                       : 0.230
Stream size                              : 1.10 GiB (75%)
Writing library                          : XviD 73
Audio
ID                                       : 1
Format                                   : AC-3
Format/Info                              : Audio Coding 3
Mode extension                           : CM (complete main)
Format settings, Endianness              : Big
Codec ID                                 : 2000
Duration                                 : 2h 10mn
Bit rate mode                            : Constant
Bit rate                                 : 384 Kbps
Channel(s)                               : 6 channels
Channel positions                        : Front: L C R, Side: L R, LFE
Sampling rate                            : 48.0 KHz
Bit depth                                : 16 bits
Compression mode                         : Lossy
Stream size                              : 358 MiB (24%)
Alignment                                : Split accross interleaves
Interleave, duration                     : 42 ms (1.00 video frame)
Interleave, preload duration             : 500 ms
-
Скачать

Скачать торрент!

Как скачивать? · Что такое торрент? · Рейтинг и ограничения

Сайт не распространяет и не хранит электронные версии произведений, а лишь предоставляет доступ к создаваемому пользователями каталогу ссылок на торрент-файлы, которые содержат только списки хеш-сумм

[Профиль] [ЛС]
Показать сообщения:    
Ответить на тему

Текущее время: Сегодня 04:18

Часовой пояс: GMT + 4



Вы не можете начинать темы
Вы не можете отвечать на сообщения
Вы не можете редактировать свои сообщения
Вы не можете удалять свои сообщения
Вы не можете голосовать в опросах
Вы не можете прикреплять файлы к сообщениям
Вы не можете скачивать файлы