Голод / The Hunger (Тони Скотт / Tony Scott) [1983, Великобритания, ужасы, триллер, драма, BDRemux 1080p] AVO (Михалёв) + MVO + DVO + Original (Eng) + Sub (Rus, Eng)

Ответить на тему
 
Автор Сообщение

user ®

Стаж: 7 лет 7 месяцев

Сообщений: 20008

Пост Пост: #1 от 05-Сен-2015 14:09

[Цитировать]

Голод / The Hunger
Год выпуска: 1983
Страна: Великобритания
Жанр: ужасы, триллер, драма
Продолжительность: 01:36:30
Перевод1: Авторский (одноголосый закадровый)(А.Михалёв)
Перевод2: Профессиональный (многоголосый закадровый)
Перевод3: Профессиональный (двухголосый закадровый)
Субтитры: русские, английские
Оригинальная аудиодорожка: английский
Режиссер: Тони Скотт / Tony Scott
В ролях: Катрин Денев /Catherine Deneuve/, Дэвид Боуи /David Bowie/, Сьюзан Сарандон /Susan Sarandon/, Клифф Де Янг /Cliff De Young/, Дэн Хедайя /Dan Hedaya/, Бет Элерс /Beth Ehlers
Описание: Завораживющий, очень красиво снятый фильм с сочетанием ужасов и эротики о вампирше Денев, которой необходима кровь, чтобы поддерживать в себе вечную жизнь и молодость. Черные кожаные костюмы, черные очки, секс, эстетически выдержанная стилизация смерти, крови и эротики в сочетании с соответствующей музыкой. Сэрэндон, проводящая опыты над обезьянами в исследовательской клинике, становится жертвой и подругой Денев в вампирских кроваво-сексуальных оргиях. Расплата за наслаждения очень высока - Боуи, например, вкусивший этих прелестей, стареет не по дням, а по часам. Сцены старения потрясающи.
Фильм, вообще, можно пересматривать много раз, каждый раз угадывая как в зрительном, так и в содержательном плане что-то новое на уровне воображения. Каждый кадр - шедевр фотографии. Уиллем Дэфо снялся в эпизоде, обратите внимание. Ищите в переводе Михалева. Родителям не стоит показывать эту ленту детям до шестнадцати. (Иванов М.)


Качество: BDRemux 1080p
Формат: MKV
Видео кодек: H.264
Аудио кодек: AC3, FLAC
Видео: 1920 x 1080 / MPEG-4 AVC Video / 33940 kbps / 1080p / 23.976 fps / 16:9 / High Profile 4.1
Аудио1: Русский / AC3 / 2.0 / 192 Kbps / 48,0 kHz (Mikhalev)
Аудио2: Русский / AC3 / 2.0 / 192 Kbps / 48,0 kHz (MVO)
Аудио3: Русский / AC3 / 2.0 / 192 Kbps / 48,0 kHz (DVO)
Аудио4: English / FLAC / 2.0 / 48 kHz / ~707 kbps (Original)
Аудио5: English / FLAC / 2.0 / 48 kHz / ~686 kbps (Commentary)
Субтитры: Soft Sub (SRT)
Главы
MediaInfo
Общее
Уникальный идентификатор : 250419878120002866642116907446592598627 (0xBC651D3BD34680EC861A63666DC7F263)
Полное имя : D:\The.Hunger.1983.BDRemux.1080p.3xRus.Eng.mkv
Формат : Matroska
Версия формата : Version 4 / Version 2
Размер файла : 24,2 Гбайт
Продолжительность : 1 ч. 36 м.
Режим общего битрейта : Переменный
Общий поток : 35,9 Мбит/сек
Название фильма : Hunger
Дата кодирования : UTC 2015-08-30 19:51:28
Программа кодирования : mkvmerge v7.3.0 ('Nouages') 32bit built on Oct 22 2014 18:44:01
Библиотека кодирования : libebml v1.3.0 + libmatroska v1.4.1
DURATION : 01:33:46.786000000
NUMBER_OF_FRAMES : 741
NUMBER_OF_BYTES : 25605
_STATISTICS_WRITING_APP : mkvmerge v7.3.0 ('Nouages') 32bit built on Oct 22 2014 18:44:01
_STATISTICS_WRITING_DATE_UTC : 2015-08-30 19:51:28
_STATISTICS_TAGS : BPS DURATION NUMBER_OF_FRAMES NUMBER_OF_BYTES
Видео
Идентификатор : 1
Формат : AVC
Формат/Информация : Advanced Video Codec
Профиль формата : High@L4.1
Параметр CABAC формата : Да
Параметр ReFrames формата : 4 кадра
Идентификатор кодека : V_MPEG4/ISO/AVC
Продолжительность : 1 ч. 36 м.
Вид битрейта : Постоянный
Номинальный битрейт : 35,0 Мбит/сек
Ширина : 1920 пикселей
Высота : 1080 пикселей
Соотношение сторон : 16:9
Режим частоты кадров : Постоянный
Частота кадров : 23,976 кадра/сек
Цветовое пространство : YUV
Субдискретизация насыщенности : 4:2:0
Битовая глубина : 8 бит
Тип развёртки : Прогрессивная
Бит/(Пиксели*Кадры) : 0.704
Заголовок : The Hunger 1983 1080p Blu-ray AVC DTS-HD MA 2.0
Default : Нет
Forced : Нет
Аудио #1
Идентификатор : 2
Формат : AC-3
Формат/Информация : Audio Coding 3
Расширение режима : CM (complete main)
Параметр Endianness формата : Big
Идентификатор кодека : A_AC3
Продолжительность : 1 ч. 36 м.
Вид битрейта : Постоянный
Битрейт : 192 Кбит/сек
Каналы : 2 канала
Расположение каналов : Front: L R
Частота : 48,0 КГц
Метод сжатия : С потерями
Размер потока : 133 Мбайт (1%)
Заголовок : Mikhalev AC3 2.0 192 kbps
Язык : Russian
Default : Нет
Forced : Нет
Аудио #2
Идентификатор : 3
Формат : AC-3
Формат/Информация : Audio Coding 3
Расширение режима : CM (complete main)
Параметр Endianness формата : Big
Идентификатор кодека : A_AC3
Продолжительность : 1 ч. 36 м.
Вид битрейта : Постоянный
Битрейт : 192 Кбит/сек
Каналы : 2 канала
Расположение каналов : Front: L R
Частота : 48,0 КГц
Метод сжатия : С потерями
Размер потока : 133 Мбайт (1%)
Заголовок : MVO1 AC3 2.0 192 kbps
Язык : Russian
Default : Нет
Forced : Нет
Аудио #3
Идентификатор : 4
Формат : AC-3
Формат/Информация : Audio Coding 3
Расширение режима : CM (complete main)
Параметр Endianness формата : Big
Идентификатор кодека : A_AC3
Продолжительность : 1 ч. 36 м.
Вид битрейта : Постоянный
Битрейт : 192 Кбит/сек
Каналы : 2 канала
Расположение каналов : Front: L R
Частота : 48,0 КГц
Метод сжатия : С потерями
Размер потока : 133 Мбайт (1%)
Заголовок : MVO2 AC3 2.0 192 kbps
Язык : Russian
Default : Нет
Forced : Нет
Аудио #4
Идентификатор : 5
Формат : FLAC
Формат/Информация : Free Lossless Audio Codec
Идентификатор кодека : A_FLAC
Продолжительность : 1 ч. 36 м.
Вид битрейта : Переменный
Каналы : 2 канала
Частота : 48,0 КГц
Битовая глубина : 24 бит
Заголовок : Original FLAC 2.0 ~707 kbps
Библиотека кодирования : libFLAC 1.2.1 (UTC 2007-09-17)
Язык : English
Default : Нет
Forced : Нет
Аудио #5
Идентификатор : 6
Формат : FLAC
Формат/Информация : Free Lossless Audio Codec
Идентификатор кодека : A_FLAC
Продолжительность : 1 ч. 36 м.
Вид битрейта : Переменный
Каналы : 2 канала
Частота : 48,0 КГц
Битовая глубина : 24 бит
Заголовок : Commentary FLAC 2.0 ~686 kbps
Библиотека кодирования : libFLAC 1.2.1 (UTC 2007-09-17)
Язык : English
Default : Нет
Forced : Нет
Текст #1
Идентификатор : 7
Формат : UTF-8
Идентификатор кодека : S_TEXT/UTF8
Идентификатор кодека/Информация : UTF-8 Plain Text
Язык : Russian
Default : Нет
Forced : Нет
Текст #2
Идентификатор : 8
Формат : UTF-8
Идентификатор кодека : S_TEXT/UTF8
Идентификатор кодека/Информация : UTF-8 Plain Text
Язык : English
Default : Нет
Forced : Нет
Меню
00:00:00.000 : en:00:00:00.000
00:03:10.899 : en:00:03:10.899
00:06:30.098 : en:00:06:30.098
00:12:29.374 : en:00:12:29.374
00:16:20.938 : en:00:16:20.938
00:21:09.852 : en:00:21:09.852
00:27:52.296 : en:00:27:52.296
00:32:26.153 : en:00:32:26.153
00:38:40.485 : en:00:38:40.485
00:44:49.896 : en:00:44:49.896
00:48:23.776 : en:00:48:23.776
00:52:23.223 : en:00:52:23.223
00:56:13.328 : en:00:56:13.328
01:00:05.602 : en:01:00:05.602
01:03:30.432 : en:01:03:30.432
01:08:30.148 : en:01:08:30.148
01:10:41.904 : en:01:10:41.904
01:13:53.512 : en:01:13:53.512
01:16:47.228 : en:01:16:47.228
01:21:12.034 : en:01:21:12.034
01:24:44.121 : en:01:24:44.121
01:29:48.466 : en:01:29:48.466
01:33:13.713 : en:01:33:13.713
Сэмпл Скриншоты
Скачать

Скачать торрент!

Как скачивать? · Что такое торрент? · Рейтинг и ограничения

Сайт не распространяет и не хранит электронные версии произведений, а лишь предоставляет доступ к создаваемому пользователями каталогу ссылок на торрент-файлы, которые содержат только списки хеш-сумм

[Профиль] [ЛС]
Показать сообщения:    
Ответить на тему

Текущее время: Сегодня 06:14

Часовой пояс: GMT + 4



Вы не можете начинать темы
Вы не можете отвечать на сообщения
Вы не можете редактировать свои сообщения
Вы не можете удалять свои сообщения
Вы не можете голосовать в опросах
Вы не можете прикреплять файлы к сообщениям
Вы не можете скачивать файлы