Остров сокровищ (Владимир Вайншток) [1937, Мюзикл, приключения, SATRip-AVC]

Ответить на тему
 
Автор Сообщение

user ®

Стаж: 7 лет 7 месяцев

Сообщений: 20008

Пост Пост: #1 от 05-Сен-2015 01:48

[Цитировать]

-Остров сокровищ / Оригинальная версия 1937 года- Жанр: Мюзикл, приключения
Год выпуска: 1937
Продолжительность: 01:27:47-Режиссёр: Владимир Вайншток-В ролях: Клавдия (Капитолина) Пугачёва, Осип Абдулов, Михаил Климов, Николай Черкасов, Михаил Царёв, Анатолий Быков, Николай Мичурин, Иона Бий-Бродский, Владимир Ершов, В. Якушенко, Л. Мещерин, Пётр Галаджев, Анастасия Левшина, Сергей Мартинсон-Описание: 1793 год. Отряды повстанцев Ирландии, сражающиеся за освобождение от владычества Англии, временно отступают под натиском войск врага. Они оставляют раненого доктора Лайвеси на попечение хозяйки небольшой гостиницы и ее дочери Дженни. Девушка ухаживает за молодым доктором.
Вскоре в гостинце появляется еще один постоялец — старый пират Билли Бонс, скрывающийся от преследований старых друзей. У Бонса имеется карта с обозначением места, где хранятся сокровища знаменитого пирата Флинта. Билли Бонс становится жертвой пиратов, а карта попадает в руки Лайвеси и Дженни. Повстанцы решают отыскать клад, чтобы на эти деньги приобрести оружие и боеприпасы…-Доп. информация:

Производство: "Союздетфильм" (Киностудия имени Горького), СССР, 1937 г.
Сценарий: Олег Леонидов, Владимир Вайншток, Роберт Льюис Стивенсон
Директор фильма: А. Панчук
Оператор: Михаил Кириллов
Композитор: Никита Богословский
Художник: Сергей Козловский, Яков Ривош
Монтаж: М. Шитова-Внимание! Присутствует большое количество плавающего кропа.-Сэмпл: https://yadi.sk/i/OioyC2thisnmT-Качество видео: SATRip-AVC
Формат видео: MKV
Видео кодек: H.264
Аудио кодек: AC3
Видео: 704:528 (4:3), 25 fps, ~2219 kbps
Аудио: 48 kHz, AC3 Dolby Digital, 2/0 (L,R) ch, ~192 kbps
MediaInfo
General
Unique ID : 246678888831452103482221490690556748470 (0xB994A038AE0CC4A4A79D21292458E2B6)
Complete name : C:\Torrent\Остров сокровищ.1937.SATRip-AVC by Dmitrio7197\Остров сокровищ.1937.SATRip-AVC by Dmitrio7197.mkv
Format : Matroska
Format version : Version 2
File size : 1.48 GiB
Duration : 1h 27mn
Overall bit rate : 2 413 Kbps
Encoded date : UTC 2015-09-04 17:20:06
Writing application : mkvmerge v6.1.0 ('Old Devil') built on Mar 4 2013 09:10:42
Writing library : libebml v1.3.0 + libmatroska v1.4.0
Video
ID : 1
Format : AVC
Format/Info : Advanced Video Codec
Format profile : High@L4.1
Format settings, CABAC : Yes
Format settings, ReFrames : 8 frames
Codec ID : V_MPEG4/ISO/AVC
Duration : 1h 27mn
Bit rate : 2 219 Kbps
Width : 704 pixels
Height : 528 pixels
Display aspect ratio : 4:3
Frame rate mode : Constant
Frame rate : 25.000 fps
Color space : YUV
Chroma subsampling : 4:2:0
Bit depth : 8 bits
Scan type : Progressive
Bits/(Pixel*Frame) : 0.239
Stream size : 1.33 GiB (90%)
Writing library : x264 core 130 r2273 b3065e6
Encoding settings : cabac=1 / ref=8 / deblock=1:0:0 / analyse=0x3:0x113 / me=umh / subme=11 / psy=1 / psy_rd=1.00:0.00 / mixed_ref=1 / me_range=24 / chroma_me=1 / trellis=2 / 8x8dct=1 / cqm=0 / deadzone=21,11 / fast_pskip=1 / chroma_qp_offset=-2 / threads=6 / lookahead_threads=1 / sliced_threads=0 / nr=0 / decimate=0 / interlaced=0 / bluray_compat=0 / constrained_intra=0 / bframes=8 / b_pyramid=2 / b_adapt=1 / b_bias=0 / direct=3 / weightb=1 / open_gop=0 / weightp=2 / keyint=250 / keyint_min=25 / scenecut=40 / intra_refresh=0 / rc_lookahead=40 / rc=2pass / mbtree=1 / bitrate=2219 / ratetol=1.0 / qcomp=0.60 / qpmin=0 / qpmax=69 / qpstep=4 / cplxblur=20.0 / qblur=0.5 / ip_ratio=1.40 / aq=1:1.00
Default : Yes
Forced : No
Audio
ID : 2
Format : AC-3
Format/Info : Audio Coding 3
Mode extension : CM (complete main)
Format settings, Endianness : Big
Codec ID : A_AC3
Duration : 1h 27mn
Bit rate mode : Constant
Bit rate : 192 Kbps
Channel(s) : 2 channels
Channel positions : Front: L R
Sampling rate : 48.0 KHz
Bit depth : 16 bits
Compression mode : Lossy
Stream size : 121 MiB (8%)
Default : Yes
Forced : No
Скриншоты Сравнение
DVDRip (эта же версия, но длительность 01:26:21) - [url=http://***/forum/viewtopic.php?t=341302]http://***/forum/viewtopic.php?t=341302[/url]
http://screenshotcomparison.com/comparison/141330
Остальные раздачи - редакции 1983 года.
Хотел сделать сравнение изданий, но уже глаза слипаются. Позже тут оформлю.
Скачать

Скачать торрент!

Как скачивать? · Что такое торрент? · Рейтинг и ограничения

Сайт не распространяет и не хранит электронные версии произведений, а лишь предоставляет доступ к создаваемому пользователями каталогу ссылок на торрент-файлы, которые содержат только списки хеш-сумм

[Профиль] [ЛС]
Показать сообщения:    
Ответить на тему

Текущее время: Сегодня 14:10

Часовой пояс: GMT + 4



Вы не можете начинать темы
Вы не можете отвечать на сообщения
Вы не можете редактировать свои сообщения
Вы не можете удалять свои сообщения
Вы не можете голосовать в опросах
Вы не можете прикреплять файлы к сообщениям
Вы не можете скачивать файлы