Грязный стыд / Бесстыдники / Стыд и срам / Позорище / Чудовищный позор / A Dirty Shame (Джон Уотерс / John Waters) [2004, США, комедия, WEB-DL 720p] DVO (Tycoon) + MVO (R5) + VO + Sub Rus, Eng + Original Eng

Ответить на тему
 
Автор Сообщение

user ®

Стаж: 7 лет 7 месяцев

Сообщений: 20008

Пост Пост: #1 от 04-Сен-2015 22:42

[Цитировать]

Грязный стыд / Бесстыдники / Стыд и срам / Позорище / Чудовищный позор / A Dirty Shame
Страна: США
Студия: Fine Line Features, This Is That Productions, Killer Films
Жанр: комедия
Год выпуска: 2004
Продолжительность: 01:28:52
Перевод: Профессиональный (двухголосый закадровый) Tycoon
Перевод 2: Профессиональный (многоголосый закадровый) R5
Перевод 3: Одноголосый закадровый
Cубтитры: русские, английские
Оригинальная аудиодорожка: английский
Режиссер: Джон Уотерс / John Waters
В ролях: Трейси Уллмен, Джонни Ноксвил, Селма Блэр, Крис Айзек, Сюзанн Шеперд, Минк Стоул, Патриция Хёрст, Джеки Хоффман, Николас И. Ноубл, Люси Ньюман-Уильямс
Описание: После сотрясения мозга у немолодой Сильвии Стиклс, добропорядочной жены и матери из Балтимора, держательницы магазина, просыпается плотское желание, и жители Балтимора начинают борьбу благопристойности против порока.
Сильвия встречает местного водителя грузовика и развратника Рэй-Рэй Перкинса. Вместе они пускаются во все тяжкие, погружаются на самое дно низменных инстинктов, таща за собой преданного мужа Сильвии, Вона и ее дочь, танцовщицу Каприс.
II Сэмпл II IMDB II

Доп. информация:
Дороги взяты с раздачи K_A_E за что ему большое спасибо.
Цитата:
За дорожку Tycoon спасибо MАDHEAD, за одноголоску спасибо GEORGE_M
Тип релиза: WEB-DL 720p
Контейнер: MKV
Видео: AVC / 1280x720 / 16:9 / 23.976fps / Bit rate 3843Kbps
Аудио 1: AC3 / 48.0 KHz / 6ch. / 448kbps / rus / dvo / Tycoon
Аудио 2: AC3 / 48.0 KHz / 6ch. / 448kbps / rus / mvo / R5
Аудио 3: AC3 / 48.0 KHz / 2ch. / 192kbps / rus / vo
Аудио 4: AC3 / 48.0 KHz / 6ch. / 448kbps / eng / DVD
Аудио 5: AAC-LC / 48.0 KHz / 2ch. / 123kbps / eng / WEB-DL.720p
Формат субтитров: softsub (SRT)
MediaInfo
Общее
Уникальный идентификатор : 198286717476715454238552661328799570346 (0x952CA1F7125EA0A48E835C0CA1E999AA)
Полное имя : H:\!_Torrent\A.Dirty.Shame.2004.WEB-DL.720p_by_vedigo.mkv
Формат : Matroska
Версия формата : Version 4 / Version 2
Размер файла : 3,46 Гбайт
Продолжительность : 1 ч. 28 м.
Общий поток : 5582 Кбит/сек
Название фильма : A.Dirty.Shame.2004.WEB-DL.720p_by_vedigo
Дата кодирования : UTC 2015-08-29 22:53:37
Программа кодирования : mkvmerge v8.3.0 ('Over the Horizon') 64bit
Библиотека кодирования : libebml v1.3.1 + libmatroska v1.4.2
DURATION : 01:21:50.202000000
NUMBER_OF_FRAMES : 999
NUMBER_OF_BYTES : 57201
_STATISTICS_WRITING_APP : mkvmerge v8.3.0 ('Over the Horizon') 64bit
_STATISTICS_WRITING_DATE_UTC : 2015-08-29 22:53:37
_STATISTICS_TAGS : BPS DURATION NUMBER_OF_FRAMES NUMBER_OF_BYTES
Видео
Идентификатор : 1
Формат : AVC
Формат/Информация : Advanced Video Codec
Профиль формата : High@L3.1
Параметр CABAC формата : Нет
Параметр ReFrames формата : 2 кадра
Идентификатор кодека : V_MPEG4/ISO/AVC
Продолжительность : 1 ч. 28 м.
Ширина : 1280 пикселей
Высота : 720 пикселей
Соотношение сторон : 16:9
Режим частоты кадров : Постоянный
Частота кадров : 23,976 кадра/сек
Цветовое пространство : YUV
Субдискретизация насыщенности : 4:2:0
Битовая глубина : 8 бит
Тип развёртки : Прогрессивная
Заголовок : A.Dirty.Shame.2004.WEB-DL.720p_by_vedigo
Default : Да
Forced : Нет
Цветовой диапазон : Limited
Основные цвета : BT.709
Характеристики трансфера : BT.709
Коэффициенты матрицы : BT.709
Аудио #1
Идентификатор : 2
Формат : AC-3
Формат/Информация : Audio Coding 3
Расширение режима : CM (complete main)
Параметр Endianness формата : Big
Идентификатор кодека : A_AC3
Продолжительность : 1 ч. 28 м.
Вид битрейта : Постоянный
Битрейт : 448 Кбит/сек
Каналы : 6 каналов
Расположение каналов : Front: L C R, Side: L R, LFE
Частота : 48,0 КГц
Метод сжатия : С потерями
Размер потока : 285 Мбайт (8%)
Заголовок : DVO @ Tycoon
Язык : Russian
Default : Да
Forced : Нет
Аудио #2
Идентификатор : 3
Формат : AC-3
Формат/Информация : Audio Coding 3
Расширение режима : CM (complete main)
Параметр Endianness формата : Big
Идентификатор кодека : A_AC3
Продолжительность : 1 ч. 28 м.
Вид битрейта : Постоянный
Битрейт : 448 Кбит/сек
Каналы : 6 каналов
Расположение каналов : Front: L C R, Side: L R, LFE
Частота : 48,0 КГц
Метод сжатия : С потерями
Размер потока : 285 Мбайт (8%)
Заголовок : MVO @ R5
Язык : Russian
Default : Нет
Forced : Нет
Аудио #3
Идентификатор : 4
Формат : AC-3
Формат/Информация : Audio Coding 3
Расширение режима : CM (complete main)
Параметр Endianness формата : Big
Идентификатор кодека : A_AC3
Продолжительность : 1 ч. 28 м.
Вид битрейта : Постоянный
Битрейт : 192 Кбит/сек
Каналы : 2 канала
Расположение каналов : Front: L R
Частота : 48,0 КГц
Метод сжатия : С потерями
Размер потока : 122 Мбайт (3%)
Заголовок : VO
Язык : Russian
Default : Нет
Forced : Нет
Аудио #4
Идентификатор : 5
Формат : AC-3
Формат/Информация : Audio Coding 3
Расширение режима : CM (complete main)
Параметр Endianness формата : Big
Идентификатор кодека : A_AC3
Продолжительность : 1 ч. 28 м.
Вид битрейта : Постоянный
Битрейт : 448 Кбит/сек
Каналы : 6 каналов
Расположение каналов : Front: L C R, Side: L R, LFE
Частота : 48,0 КГц
Метод сжатия : С потерями
Размер потока : 285 Мбайт (8%)
Заголовок : original @ DVD
Язык : English
Default : Нет
Forced : Нет
Аудио #5
Идентификатор : 6
Формат : AAC
Формат/Информация : Advanced Audio Codec
Профиль формата : LC
Идентификатор кодека : A_AAC
Продолжительность : 1 ч. 28 м.
Каналы : 2 канала
Расположение каналов : Front: L R
Частота : 48,0 КГц
Метод сжатия : С потерями
Заголовок : original @ WEB-DL.720p
Язык : English
Default : Нет
Forced : Нет
Текст #1
Идентификатор : 7
Формат : UTF-8
Идентификатор кодека : S_TEXT/UTF8
Идентификатор кодека/Информация : UTF-8 Plain Text
Заголовок : subtitle rus
Язык : Russian
Default : Нет
Forced : Нет
Текст #2
Идентификатор : 8
Формат : UTF-8
Идентификатор кодека : S_TEXT/UTF8
Идентификатор кодека/Информация : UTF-8 Plain Text
Заголовок : subtitle eng
Язык : English
Default : Нет
Forced : Нет
Меню
00:00:00.000 : en:Main Title
00:03:41.000 : en:The Stickles
00:08:23.000 : en:Ray-Ray and the Concussion
00:14:37.000 : en:Pinewood Park and Pay
00:19:59.000 : en:Yodeling in the Canyon
00:21:43.000 : en:The Decency Meeting
00:23:42.000 : en:The Hokey Pokey Dance
00:26:45.000 : en:Sylvia's New Look
00:31:04.000 : en:Ray-Ray's Service Center
00:37:44.000 : en:It's a Dirty Shame!
00:41:41.000 : en:Ursula and Sylvia Bond
00:49:50.000 : en:You're a Sex Addict, Sylvia!
01:02:06.000 : en:Let's Go Sexin'!
01:07:04.000 : en:I Wanna Be Horny
01:12:12.000 : en:Invasion of Pinewood Park and Pay
01:16:53.000 : en:The Sexual Revolution Has Begun!
01:23:42.000 : en:End Credits
Скриншоты
Скачать

Скачать торрент!

Как скачивать? · Что такое торрент? · Рейтинг и ограничения

Сайт не распространяет и не хранит электронные версии произведений, а лишь предоставляет доступ к создаваемому пользователями каталогу ссылок на торрент-файлы, которые содержат только списки хеш-сумм

[Профиль] [ЛС]
Показать сообщения:    
Ответить на тему

Текущее время: Сегодня 18:39

Часовой пояс: GMT + 4



Вы не можете начинать темы
Вы не можете отвечать на сообщения
Вы не можете редактировать свои сообщения
Вы не можете удалять свои сообщения
Вы не можете голосовать в опросах
Вы не можете прикреплять файлы к сообщениям
Вы не можете скачивать файлы