Из темноты / Out of the Dark (Йуис Килес / Lluís Quílez) [2014, США, Колумбия, Испания, триллер, ужасы, BDRip 720p] Dub + Sub Eng + Original Eng

Ответить на тему
 
Автор Сообщение

user ®

Стаж: 7 лет 7 месяцев

Сообщений: 20008

Пост Пост: #1 от 04-Сен-2015 16:30

[Цитировать]

Из темноты / Out of the Dark
Страна: США, Колумбия, Испания
Студия: Apaches Entertainment, Cactus Flower Producciones, Dynamo
Жанр: триллер, ужасы
Год выпуска: 2014
Продолжительность: 01:33:28
Перевод: Профессиональный (дублированный)
Cубтитры: английские
Оригинальная аудиодорожка: английский
Режиссер: Йуис Килес / Lluís Quílez
В ролях: Скотт Спидман, Джулия Стайлз, Пикси Дейвис, Алехандро Ферт, Стивен Ри, Гильермо Моралес Витола
Описание: Пара со своей дочерью переезжают в Колумбию, чтобы заняться делами их семейного обрабатывающего предприятия, но скоро они узнают, что их новый дом населен привидениями…

Тип релиза: BDRip 720p
Контейнер: MKV
Видео: MPEG-4 AVC, 8700 Кбит/с, 1280x536, 23,976 fps
Аудио: Rus, AC3, 384 kb/s (6 ch), 48 kHz
Аудио 2: Eng, DTS, 1510 kb/s (6 ch), 48 kHz
Формат субтитров: softsub (SRT)
MediaInfo
Format : Matroska
Format version : Version 4 / Version 2
File size : 6.91 GiB
Duration : 1h 33mn
Overall bit rate : 10.6 Mbps
Movie name : Из темноты. (Tonik)
Encoded date : UTC 2015-08-29 12:04:58
Writing application : mkvmerge v7.1.0 ('Good Love') 64bit built on Jul 27 2014 13:06:55
Writing library : libebml v1.3.0 + libmatroska v1.4.1
_STATISTICS_WRITING_APP : mkvmerge v7.1.0 ('Good Love') 64bit built on Jul 27 2014 13:06:55
_STATISTICS_WRITING_DATE_UTC : 2015-08-29 12:04:58
_STATISTICS_TAGS : BPS DURATION NUMBER_OF_FRAMES NUMBER_OF_BYTES
DURATION : 01:33:28.544000000
NUMBER_OF_FRAMES : 175267
NUMBER_OF_BYTES : 269210112
Video
ID : 1
Format : AVC
Format/Info : Advanced Video Codec
Format profile : High@L4.1
Format settings, CABAC : Yes
Format settings, ReFrames : 12 frames
Codec ID : V_MPEG4/ISO/AVC
Duration : 1h 33mn
Bit rate : 8 700 Kbps
Width : 1 280 pixels
Height : 536 pixels
Display aspect ratio : 2.40:1
Frame rate mode : Constant
Frame rate : 23.976 fps
Color space : YUV
Chroma subsampling : 4:2:0
Bit depth : 8 bits
Scan type : Progressive
Bits/(Pixel*Frame) : 0.529
Stream size : 5.54 GiB (80%)
Writing library : x264 core 146 r2538 121396c
Encoding settings : cabac=1 / ref=12 / deblock=1:-3:-3 / analyse=0x3:0x133 / me=umh / subme=10 / psy=1 / psy_rd=1.10:0.00 / mixed_ref=1 / me_range=32 / chroma_me=1 / trellis=2 / 8x8dct=1 / cqm=0 / deadzone=21,11 / fast_pskip=0 / chroma_qp_offset=-2 / threads=18 / lookahead_threads=3 / sliced_threads=0 / nr=0 / decimate=1 / interlaced=0 / bluray_compat=0 / constrained_intra=0 / bframes=8 / b_pyramid=2 / b_adapt=2 / b_bias=0 / direct=3 / weightb=1 / open_gop=0 / weightp=2 / keyint=250 / keyint_min=23 / scenecut=40 / intra_refresh=0 / rc_lookahead=40 / rc=2pass / mbtree=0 / bitrate=8700 / ratetol=1.0 / qcomp=0.68 / qpmin=0 / qpmax=69 / qpstep=4 / cplxblur=20.0 / qblur=0.5 / vbv_maxrate=62500 / vbv_bufsize=78125 / nal_hrd=none / filler=0 / ip_ratio=1.20 / pb_ratio=1.10 / aq=3:0.75
Language : English
Default : Yes
Forced : No
_STATISTICS_WRITING_APP : mkvmerge v7.1.0 ('Good Love') 64bit built on Jul 27 2014 13:06:55
_STATISTICS_WRITING_DATE_UTC : 2015-08-29 12:04:58
_STATISTICS_TAGS : BPS DURATION NUMBER_OF_FRAMES NUMBER_OF_BYTES
DURATION : 01:33:28.603000000
NUMBER_OF_FRAMES : 134472
NUMBER_OF_BYTES : 6095181733
Audio #1
ID : 2
Format : AC-3
Format/Info : Audio Coding 3
Mode extension : CM (complete main)
Format settings, Endianness : Big
Codec ID : A_AC3
Duration : 1h 33mn
Bit rate mode : Constant
Bit rate : 384 Kbps
Channel(s) : 6 channels
Channel positions : Front: L C R, Side: L R, LFE
Sampling rate : 48.0 KHz
Bit depth : 16 bits
Compression mode : Lossy
Stream size : 257 MiB (4%)
Language : Russian
Default : Yes
Forced : No
Audio #2
ID : 3
Format : DTS
Format/Info : Digital Theater Systems
Mode : 16
Format settings, Endianness : Big
Codec ID : A_DTS
Duration : 1h 33mn
Bit rate mode : Constant
Bit rate : 1 509 Kbps
Channel(s) : 6 channels
Channel positions : Front: L C R, Side: L R, LFE
Sampling rate : 48.0 KHz
Bit depth : 24 bits
Compression mode : Lossy
Stream size : 1 009 MiB (14%)
Language : English
Default : No
Forced : No
Text #1
ID : 4
Format : UTF-8
Codec ID : S_TEXT/UTF8
Codec ID/Info : UTF-8 Plain Text
Title : Forced
Language : English
Default : No
Forced : No
Text #2
ID : 5
Format : UTF-8
Codec ID : S_TEXT/UTF8
Codec ID/Info : UTF-8 Plain Text
Language : English
Default : No
Forced : No
Menu
00:00:00.000 : en:1
00:06:59.419 : en:2
00:11:18.303 : en:3
00:17:54.198 : en:4
00:23:45.674 : en:5
00:27:25.352 : en:6
00:32:34.119 : en:7
00:39:01.256 : en:8
00:43:59.262 : en:9
00:50:20.434 : en:10
00:58:07.526 : en:11
01:04:08.053 : en:12
01:10:21.384 : en:13
01:16:30.211 : en:14
01:21:52.449 : en:15
01:27:40.088 : en:16
Скриншоты
Скачать

Скачать торрент!

Как скачивать? · Что такое торрент? · Рейтинг и ограничения

Сайт не распространяет и не хранит электронные версии произведений, а лишь предоставляет доступ к создаваемому пользователями каталогу ссылок на торрент-файлы, которые содержат только списки хеш-сумм

[Профиль] [ЛС]
Показать сообщения:    
Ответить на тему

Текущее время: Сегодня 04:46

Часовой пояс: GMT + 4



Вы не можете начинать темы
Вы не можете отвечать на сообщения
Вы не можете редактировать свои сообщения
Вы не можете удалять свои сообщения
Вы не можете голосовать в опросах
Вы не можете прикреплять файлы к сообщениям
Вы не можете скачивать файлы