Шепоты в ночи / Whispers in the Dark (Кристофер Кроу / Christopher Crowe) [1992, США, триллер, детектив, WEB-DL 720p] MVO (Paramount Channel) + DVO (Премьер Видео Фильм) + Original Eng

Ответить на тему
 
Автор Сообщение

user ®

Стаж: 7 лет 7 месяцев

Сообщений: 20008

Пост Пост: #1 от 03-Сен-2015 18:51

[Цитировать]

Шепоты в ночи / Whispers in the Dark
Страна: США
Жанр: триллер, детектив
Год выпуска: 1992
Продолжительность: 01:41:29
Перевод 1: Профессиональный (многоголосый закадровый) Paramount Channel
Перевод 2: Профессиональный (двухголосый закадровый) Премьер Видео Фильм
Cубтитры: нет
Оригинальная аудиодорожка: английский
Режиссер: Кристофер Кроу / Christopher Crowe
В ролях: Аннабелла Шиорра, Джейми Шеридан, Энтони ЛаПалья, Джилл Клейбёрг, Джон Легуизамо, Дебора Кара Ангер, Энтони Хилд, Алан Алда, Жаклин Брукс, Джин Кэнфилд...
Описание: Энн Хекер, нью-йоркскому психиатру, часто грезится один и тот же сон, вызванный рассказом ее пациентки о своем любовнике. После того, как Энн знакомится с Дугом и страстно влюбляется в него, она обнаруживает, что он и есть возлюбленный ее подопечной, которая неожиданно умирает.
Подозрения терзают Энн, и ее жизнь превращается в навязчивый кошмар. Ситуация становится еще более запутанной и опасной, когда появляется зловещий художник, бывший пациент психиатра, в прошлом замешанный в серии сексуальных преступлений. Профессиональному и личному достоинству Энн брошен вызов, и сама ее жизнь оказывается под угрозой…
Доп. информация: За перевод Paramount Channel спасибо smit009. За оцифровку VHS от Премьер Видео Фильм спасибо semix. Синхронизация переводов - Dreven.
Сэмпл: http://multi-up.com/1063646
Тип релиза: WEB-DL 720p
Контейнер: MKV
Видео: 1278x720 (16:9), 23.976 fps, AVC, ~4051 Kbps, 0.184 bits/pixel
Аудио 1: Russian, 48.0 KHz, AC3, 2 ch, 192 Kbps - Paramount Channel
Аудио 2: Russian, 48.0 KHz, AC3, 2 ch, 192 Kbps - Премьер Видео Фильм
Аудио 3: English, 48.0 KHz, AC3, 6 ch, 384 Kbps

MediaInfo
General
Unique ID : 218272282584561405060875803659491689292 (0xA435B666C9FD0EC6815A18E7C08D434C)
Complete name : C:\Whispers in the Dark. WEB-DL 720p.mkv
Format : Matroska
Format version : Version 4 / Version 2
File size : 3.49 GiB
Duration : 1h 41mn
Overall bit rate : 4 917 Kbps
Movie name :
Encoded date : UTC 2015-08-25 09:55:10
Writing application : mkvmerge v8.2.0 ('World of Adventure') 64bit
Writing library : libebml v1.3.1 + libmatroska v1.4.2
DURATION : 01:41:28.896000000
NUMBER_OF_FRAMES : 190278
NUMBER_OF_BYTES : 146133504
_STATISTICS_WRITING_APP : mkvmerge v8.2.0 ('World of Adventure') 64bit
_STATISTICS_WRITING_DATE_UT : 2015-08-25 09:55:10
_STATISTICS_TAGS : BPS DURATION NUMBER_OF_FRAMES NUMBER_OF_BYTES
Video
ID : 1
Format : AVC
Format/Info : Advanced Video Codec
Format profile : High@L3.1
Format settings, CABAC : No
Format settings, ReFrames : 2 frames
Codec ID : V_MPEG4/ISO/AVC
Duration : 1h 41mn
Bit rate : 4 051 Kbps
Width : 1 278 pixels
Height : 720 pixels
Display aspect ratio : 16:9
Frame rate mode : Constant
Frame rate : 23.976 fps
Color space : YUV
Chroma subsampling : 4:2:0
Bit depth : 8 bits
Scan type : Progressive
Bits/(Pixel*Frame) : 0.184
Stream size : 2.87 GiB (82%)
Language : English
Default : Yes
Forced : No
Color range : Limited
Color primaries : BT.709
Transfer characteristics : BT.709
Matrix coefficients : BT.709
Audio #1
ID : 2
Format : AC-3
Format/Info : Audio Coding 3
Mode extension : CM (complete main)
Format settings, Endianness : Big
Codec ID : A_AC3
Duration : 1h 41mn
Bit rate mode : Constant
Bit rate : 192 Kbps
Channel(s) : 2 channels
Channel positions : Front: L R
Sampling rate : 48.0 KHz
Compression mode : Lossy
Stream size : 139 MiB (4%)
Title : Paramount Channel
Language : Russian
Default : Yes
Forced : No
Audio #2
ID : 3
Format : AC-3
Format/Info : Audio Coding 3
Mode extension : CM (complete main)
Format settings, Endianness : Big
Codec ID : A_AC3
Duration : 1h 41mn
Bit rate mode : Constant
Bit rate : 192 Kbps
Channel(s) : 2 channels
Channel positions : Front: L R
Sampling rate : 48.0 KHz
Compression mode : Lossy
Stream size : 139 MiB (4%)
Title : Премьер Видео Фильм
Language : Russian
Default : No
Forced : No
Audio #3
ID : 4
Format : AC-3
Format/Info : Audio Coding 3
Mode extension : CM (complete main)
Format settings, Endianness : Big
Codec ID : A_AC3
Duration : 1h 41mn
Bit rate mode : Constant
Bit rate : 384 Kbps
Channel(s) : 6 channels
Channel positions : Front: L C R, Side: L R, LFE
Sampling rate : 48.0 KHz
Compression mode : Lossy
Stream size : 279 MiB (8%)
Language : English
Default : No
Forced : No
Menu
00:00:00.000 : en:Chapter 1
00:14:51.000 : en:Chapter 2
00:30:00.000 : en:Chapter 2
00:45:17.000 : en:Chapter 4
01:00:42.000 : en:Chapter 5
01:15:37.000 : en:Chapter 6
01:29:00.000 : en:Chapter 7
Скриншоты
Скачать

Скачать торрент!

Как скачивать? · Что такое торрент? · Рейтинг и ограничения

Сайт не распространяет и не хранит электронные версии произведений, а лишь предоставляет доступ к создаваемому пользователями каталогу ссылок на торрент-файлы, которые содержат только списки хеш-сумм

[Профиль] [ЛС]
Показать сообщения:    
Ответить на тему

Текущее время: Сегодня 20:39

Часовой пояс: GMT + 4



Вы не можете начинать темы
Вы не можете отвечать на сообщения
Вы не можете редактировать свои сообщения
Вы не можете удалять свои сообщения
Вы не можете голосовать в опросах
Вы не можете прикреплять файлы к сообщениям
Вы не можете скачивать файлы