День наоборот / Opposite Day (Р. Майкл Гивенс / R. Michael Givens) [2009, США, комедия, семейный, WEB-DL 1080p] DVO + Sub Eng + Original Eng

Ответить на тему
 
Автор Сообщение

user ®

Стаж: 7 лет 7 месяцев

Сообщений: 20008

Пост Пост: #1 от 03-Сен-2015 18:51

[Цитировать]

День наоборот / Opposite Day
Страна: США
Студия: Opposite Day
Жанр: комедия, семейный
Год выпуска: 2009
Продолжительность: 01:21:03
Перевод: Профессиональный (двухголосый закадровый)
Cубтитры: английские
Оригинальная аудиодорожка: английский
Режиссер: Р. Майкл Гивенс / R. Michael Givens
В ролях: Билли Ангер, Ариэль Уинтер, Поли Шор, Коллин Крэбтри, Дилан Кэш, Дик Ван Паттен, Рене Тейлор, Френч Стюарт, Кристен Комбс, Рико Родригес
Описание: Девятилетний Сэмми и его восьмилетняя сестра Карла отправляются в отпуск вместе с бабушкой и дедушкой, поскольку их родители очень перегружены работой. По возвращению в город, Сэмми участвует в эксперименте отца своего друга Чака, чтобы помочь расшифровать язык младенцев. Но, вдруг, что-то пошло не так. Во время использования специальной установки, она взрываются и толчок энергии, выпущенный на свободу меняет детей и взрослых местами.
Доп. информация: За русскую дорожку спасибо igor_rogatun

Sample
Тип релиза: WEB-DL 1080p
Контейнер: MKV
Видео: MPEG4 AVC Video, H264, 16:9, 1920x1080, 23.976 fps, 5097 kbps
Аудио: Russian (AC3, 2 ch, 192 kbps, 16 bits, 48.0 KHz) - DVO
Аудио 2: English (AC3, 6 ch, 384 kbps, 16 bits, 48.0 KHz) - оригинал
Формат субтитров: softsub (SRT)

MediaInfo
General
Unique ID : 237385040587115715093470863503052343949 (0xB296B2200E3FB6AC968101A060558A8D)
Complete name : K:\Opposite Day 2009 WEB-DL 1080p.mkv
Format : Matroska
Format version : Version 4 / Version 2
File size : 3.28 GiB
Duration : 1h 21mn
Overall bit rate : 5 788 Kbps
Encoded date : UTC 2015-08-27 09:27:27
Writing application : mkvmerge v6.1.0 ('Old Devil') built on Mar 2 2013 14:32:37
Writing library : libebml v1.3.0 + libmatroska v1.4.0
Video
ID : 1
Format : AVC
Format/Info : Advanced Video Codec
Format profile : High@L4.0
Format settings, CABAC : Yes
Format settings, ReFrames : 4 frames
Codec ID : V_MPEG4/ISO/AVC
Duration : 1h 21mn
Bit rate : 5 097 Kbps
Width : 1 920 pixels
Height : 1 080 pixels
Display aspect ratio : 16:9
Frame rate mode : Constant
Frame rate : 23.976 fps
Color space : YUV
Chroma subsampling : 4:2:0
Bit depth : 8 bits
Scan type : Progressive
Bits/(Pixel*Frame) : 0.103
Stream size : 2.89 GiB (88%)
Language : English
Default : Yes
Forced : No
Color primaries : BT.709
Transfer characteristics : BT.709
Matrix coefficients : BT.709
Audio #1
ID : 2
Format : AC-3
Format/Info : Audio Coding 3
Mode extension : CM (complete main)
Format settings, Endianness : Big
Codec ID : A_AC3
Duration : 1h 21mn
Bit rate mode : Constant
Bit rate : 192 Kbps
Channel count : 2 channels
Channel positions : Front: L R
Sampling rate : 48.0 KHz
Bit depth : 16 bits
Compression mode : Lossy
Stream size : 111 MiB (3%)
Language : Russian
Default : Yes
Forced : No
Audio #2
ID : 3
Format : AC-3
Format/Info : Audio Coding 3
Mode extension : CM (complete main)
Format settings, Endianness : Big
Codec ID : A_AC3
Duration : 1h 21mn
Bit rate mode : Constant
Bit rate : 384 Kbps
Channel count : 6 channels
Channel positions : Front: L C R, Side: L R, LFE
Sampling rate : 48.0 KHz
Bit depth : 16 bits
Compression mode : Lossy
Stream size : 223 MiB (7%)
Language : English
Default : No
Forced : No
Text
ID : 4
Format : UTF-8
Codec ID : S_TEXT/UTF8
Codec ID/Info : UTF-8 Plain Text
Language : English
Default : No
Forced : No
Menu
00:00:00.000 : en:Introduction
00:04:00.000 : en:Playground
00:06:49.000 : en:Vacation
00:10:27.000 : en:Dumb Work
00:12:05.000 : en:Presentation
00:16:07.000 : en:The Wish
00:21:14.000 : en:Opposite Day
00:30:31.000 : en:Police Station
00:35:03.000 : en:Meet the Parents
00:40:29.000 : en:Good Morning
00:45:17.000 : en:A Day at Work
00:53:31.000 : en:Evil Plan
01:00:42.000 : en:Traitor
01:04:43.000 : en:Mystification
01:10:38.000 : en:Conclusion
01:17:47.000 : en:End Credits
Скриншоты
Скачать

Скачать торрент!

Как скачивать? · Что такое торрент? · Рейтинг и ограничения

Сайт не распространяет и не хранит электронные версии произведений, а лишь предоставляет доступ к создаваемому пользователями каталогу ссылок на торрент-файлы, которые содержат только списки хеш-сумм

[Профиль] [ЛС]
Показать сообщения:    
Ответить на тему

Текущее время: Сегодня 06:08

Часовой пояс: GMT + 4



Вы не можете начинать темы
Вы не можете отвечать на сообщения
Вы не можете редактировать свои сообщения
Вы не можете удалять свои сообщения
Вы не можете голосовать в опросах
Вы не можете прикреплять файлы к сообщениям
Вы не можете скачивать файлы