Пожарный пес / Firehouse Dog (Тодд Холлэнд / Todd Holland) [2007, США, Канада, боевик, комедия, семейный, WEB-DL 720p] 2х MVO + Sub Rus, Eng + Original Eng

Ответить на тему
 
Автор Сообщение

user ®

Стаж: 7 лет 7 месяцев

Сообщений: 20008

Пост Пост: #1 от 03-Сен-2015 15:45

[Цитировать]

Пожарный пес / Firehouse Dog
Страна: США, Канада
Студия: Doghouse Productions, New Regency Pictures и др.
Жанр: боевик, комедия, семейный
Год выпуска: 2007
Продолжительность: 01:51:13
Перевод: Профессиональный (многоголосый закадровый)
Перевод 2: Профессиональный (многоголосый закадровый) R5
Cубтитры: русские, английские (обычные, SDH)
Оригинальная аудиодорожка: английский
Режиссер: Тодд Холлэнд /Todd Holland
В ролях: Джош Хатчерсон, Брюс Гринвуд, Дэш Майок, Стивен Калп, Билл Нанн, Бри Тёрнер, Скотч Эллис Лоринг, Майте Гарсиа, Тедди Сирс, Клодетт Минк
Описание: Пес Рекс снимается в кино и рекламе, обладает уникальной прыгучестью, носит ошейник с бриллиантами, к его услугам — целый собачий гарем. Словом, живет псина, как и положено звезде Голливуда. Однако вся эта сладкая жизнь внезапно сменяется тяготами и лишениями: во время съемок рекламного ролика Рекс, по недосмотру безответственного персонала, пропадает.
Он бродит по улицам города, для жителей которого пес-звезда ничем не отличается от прочих бродячих собак. В конце концов, Рексу удается найти пристанище на обветшалой пожарной станции и подружиться с 12-летним Шейном.


Sample
Тип релиза: WEB-DL 720p
Контейнер: MKV
Видео: MPEG4 AVC Video, H264, 16:9, 1280x720, 23.976 fps, 3994 kbps
Аудио: Russian (AC3, 6 ch, 448 kbps, 16 bits, 48.0 KHz) - MVO
Аудио 2: Russian (AC3, 2 ch, 192 kbps, 16 bits, 48.0 KHz) - MVO R5
Аудио 3: English (AC3, 6 ch, 384 kbps, 16 bits, 48.0 KHz) - оригинал
Формат субтитров: softsub (SRT)

MediaInfo
General
Unique ID : 240925054966921459647314451217960244283 (0xB5407A4F39DDF4A9A5DDE3D0D951943B)
Complete name : K:\Firehouse Dog 2007 WEB-DL 720p.mkv
Format : Matroska
Format version : Version 4 / Version 2
File size : 3.98 GiB
Duration : 1h 51mn
Overall bit rate : 5 120 Kbps
Encoded date : UTC 2015-08-24 09:10:29
Writing application : mkvmerge v6.1.0 ('Old Devil') built on Mar 2 2013 14:32:37
Writing library : libebml v1.3.0 + libmatroska v1.4.0
Video
ID : 1
Format : AVC
Format/Info : Advanced Video Codec
Format profile : High@L3.1
Format settings, CABAC : No
Format settings, ReFrames : 2 frames
Codec ID : V_MPEG4/ISO/AVC
Duration : 1h 51mn
Bit rate : 3 994 Kbps
Width : 1 280 pixels
Height : 720 pixels
Display aspect ratio : 16:9
Frame rate mode : Constant
Frame rate : 23.976 fps
Color space : YUV
Chroma subsampling : 4:2:0
Bit depth : 8 bits
Scan type : Progressive
Bits/(Pixel*Frame) : 0.181
Stream size : 3.10 GiB (78%)
Language : English
Default : Yes
Forced : No
Color primaries : BT.709
Transfer characteristics : BT.709
Matrix coefficients : BT.709
Audio #1
ID : 2
Format : AC-3
Format/Info : Audio Coding 3
Mode extension : CM (complete main)
Format settings, Endianness : Big
Codec ID : A_AC3
Duration : 1h 51mn
Bit rate mode : Constant
Bit rate : 448 Kbps
Channel count : 6 channels
Channel positions : Front: L C R, Side: L R, LFE
Sampling rate : 48.0 KHz
Bit depth : 16 bits
Compression mode : Lossy
Stream size : 356 MiB (9%)
Language : Russian
Default : Yes
Forced : No
Audio #2
ID : 3
Format : AC-3
Format/Info : Audio Coding 3
Mode extension : CM (complete main)
Format settings, Endianness : Big
Codec ID : A_AC3
Duration : 1h 51mn
Bit rate mode : Constant
Bit rate : 192 Kbps
Channel count : 2 channels
Channel positions : Front: L R
Sampling rate : 48.0 KHz
Bit depth : 16 bits
Compression mode : Lossy
Stream size : 153 MiB (4%)
Title : R5
Language : Russian
Default : No
Forced : No
Audio #3
ID : 4
Format : AC-3
Format/Info : Audio Coding 3
Mode extension : CM (complete main)
Format settings, Endianness : Big
Codec ID : A_AC3
Duration : 1h 51mn
Bit rate mode : Constant
Bit rate : 384 Kbps
Channel count : 6 channels
Channel positions : Front: L C R, Side: L R, LFE
Sampling rate : 48.0 KHz
Bit depth : 16 bits
Compression mode : Lossy
Stream size : 306 MiB (8%)
Language : English
Default : No
Forced : No
Text #1
ID : 5
Format : UTF-8
Codec ID : S_TEXT/UTF8
Codec ID/Info : UTF-8 Plain Text
Language : Russian
Default : No
Forced : No
Text #2
ID : 6
Format : UTF-8
Codec ID : S_TEXT/UTF8
Codec ID/Info : UTF-8 Plain Text
Language : English
Default : No
Forced : No
Text #3
ID : 7
Format : UTF-8
Codec ID : S_TEXT/UTF8
Codec ID/Info : UTF-8 Plain Text
Title : SDH
Language : English
Default : No
Forced : No
Menu
00:00:00.000 : en:Temperamental Star
00:06:22.000 : en:Playing Hooky
00:11:45.000 : en:Dangerous Rescue
00:19:49.000 : en:Dog Duty
00:25:48.000 : en:This is My House
00:28:59.000 : en:Loss of a Legend
00:33:14.000 : en:Surprise Entry
00:41:10.000 : en:Responsibility
00:45:05.000 : en:Lifesaving Rescue
00:55:28.000 : en:Rest in Peace
00:58:11.000 : en:Firehouse Dog
01:01:34.000 : en:Real Strength
01:09:06.000 : en:Trey Claims His Dog
01:15:16.000 : en:Underhanded Plan
01:17:41.000 : en:True Calling
01:20:59.000 : en:Decoy Fire
01:24:31.000 : en:Firebug
01:27:19.000 : en:Dewey to the Rescue
01:33:06.000 : en:Saving Shane
01:35:01.000 : en:Justice
01:36:37.000 : en:Award Ceremony
01:38:12.000 : en:Wonder Dog
01:40:05.000 : en:The New Dogpatch
01:42:42.000 : en:My Dog/End Titles
Скриншоты
Скачать

Скачать торрент!

Как скачивать? · Что такое торрент? · Рейтинг и ограничения

Сайт не распространяет и не хранит электронные версии произведений, а лишь предоставляет доступ к создаваемому пользователями каталогу ссылок на торрент-файлы, которые содержат только списки хеш-сумм

[Профиль] [ЛС]
Показать сообщения:    
Ответить на тему

Текущее время: Сегодня 08:28

Часовой пояс: GMT + 4



Вы не можете начинать темы
Вы не можете отвечать на сообщения
Вы не можете редактировать свои сообщения
Вы не можете удалять свои сообщения
Вы не можете голосовать в опросах
Вы не можете прикреплять файлы к сообщениям
Вы не можете скачивать файлы