Небольшое привидение / Mostly Ghostly (Ричард Коррелл / Richard Correll) [2008, США, фэнтези, семейный, WEB-DL 720p] DVO + Sub Eng + Original Eng

Ответить на тему
 
Автор Сообщение

user ®

Стаж: 7 лет 7 месяцев

Сообщений: 20008

Пост Пост: #1 от 03-Сен-2015 15:45

[Цитировать]

Небольшое привидение / Mostly Ghostly
Страна: США
Студия: Cetus Prodution, Commotion Pictures
Жанр: фэнтези, семейный
Год выпуска: 2008
Продолжительность: 01:37:36
Перевод: Профессиональный (двухголосый закадровый)
Cубтитры: английские
Оригинальная аудиодорожка: английский
Режиссер: Ричард Коррелл / Richard Correll
В ролях: Мэдисон Петтис, Стерлинг Бомон, Люк Бенвард, Брайан Степанек, Дэвид ДеЛуис, Ким Родс, Адам Хикс, Али Лохан, Сабрина Брайан, Рэйчел Уинфри
Описание: Родители Макса очень выгодно купили небольшой домик и вот, вся семья переезжает на новое место. Макс большой любитель фокусов и он готовит номер для выступления в школе на Хэллоуин. Однажды пёсик Макса находит на заднем дворе обрывок бумаги с непонятным заклинанием. Оказывается, что в подвале дома находится тоннель в параллельный мир со всякой нечистью, в котором и сгинули бывшие хозяева дома. Нечисть собирается выйти наружу и только Макс сможет спасти наш светлый Мир от потустороннего зла и закрыть тоннель…
Доп. информация: За русскую дорожку спасибо 25k.

Sample
Тип релиза: WEB-DL 720p
Контейнер: MKV
Видео: MPEG4 AVC Video, H264, 16:9, 1280x720, 23.976 fps, 3722 kbps
Аудио: Russian (AC3, 2 ch, 192 kbps, 16 bits, 48.0 KHz) - DVO
Аудио 2: English (AC3, 6 ch, 384 kbps, 16 bits, 48.0 KHz) - оригинал
Формат субтитров: softsub (SRT)

MediaInfo
General
Unique ID : 237681018925582072587408062215578284241 (0xB2CFB2FBE552BE1590C0F2348B1970D1)
Complete name : K:\Mostly Ghostly 2008 WEB-DL 720p.mkv
Format : Matroska
Format version : Version 4 / Version 2
File size : 2.99 GiB
Duration : 1h 37mn
Overall bit rate : 4 385 Kbps
Encoded date : UTC 2015-08-24 10:13:39
Writing application : mkvmerge v6.1.0 ('Old Devil') built on Mar 2 2013 14:32:37
Writing library : libebml v1.3.0 + libmatroska v1.4.0
Video
ID : 1
Format : AVC
Format/Info : Advanced Video Codec
Format profile : High@L3.1
Format settings, CABAC : No
Format settings, ReFrames : 2 frames
Codec ID : V_MPEG4/ISO/AVC
Duration : 1h 37mn
Bit rate : 3 722 Kbps
Width : 1 280 pixels
Height : 720 pixels
Display aspect ratio : 16:9
Frame rate mode : Constant
Frame rate : 23.976 fps
Color space : YUV
Chroma subsampling : 4:2:0
Bit depth : 8 bits
Scan type : Progressive
Bits/(Pixel*Frame) : 0.168
Stream size : 2.54 GiB (85%)
Language : English
Default : Yes
Forced : No
Color primaries : BT.709
Transfer characteristics : BT.709
Matrix coefficients : BT.709
Audio #1
ID : 2
Format : AC-3
Format/Info : Audio Coding 3
Mode extension : CM (complete main)
Format settings, Endianness : Big
Codec ID : A_AC3
Duration : 1h 37mn
Bit rate mode : Constant
Bit rate : 192 Kbps
Channel count : 2 channels
Channel positions : Front: L R
Sampling rate : 48.0 KHz
Bit depth : 16 bits
Compression mode : Lossy
Stream size : 134 MiB (4%)
Language : Russian
Default : Yes
Forced : No
Audio #2
ID : 3
Format : AC-3
Format/Info : Audio Coding 3
Mode extension : CM (complete main)
Format settings, Endianness : Big
Codec ID : A_AC3
Duration : 1h 37mn
Bit rate mode : Constant
Bit rate : 384 Kbps
Channel count : 6 channels
Channel positions : Front: L C R, Side: L R, LFE
Sampling rate : 48.0 KHz
Bit depth : 16 bits
Compression mode : Lossy
Stream size : 268 MiB (9%)
Language : English
Default : No
Forced : No
Text
ID : 4
Format : UTF-8
Codec ID : S_TEXT/UTF8
Codec ID/Info : UTF-8 Plain Text
Language : English
Default : No
Forced : No
Menu
00:00:00.000 : en:Max the Magnificent
00:04:16.000 : en:Sibling Rivalry
00:08:32.000 : en:Paranormal
00:11:57.000 : en:The Underworld
00:16:17.000 : en:Magic Chant
00:19:53.000 : en:Bullied
00:26:10.000 : en:Seeing Ghosts
00:32:06.000 : en:Locked Up
00:38:26.000 : en:Fear Phears
00:42:07.000 : en:Among the Living
00:47:38.000 : en:Dirt Diving
00:51:14.000 : en:Magician's Assistant
00:55:17.000 : en:Heads-Up
01:02:31.000 : en:Rehearsal
01:06:54.000 : en:Stressed-Out
01:11:12.000 : en:Into the Tunnel
01:18:28.000 : en:Trick or Treat
01:24:36.000 : en:Evil Released
01:30:47.000 : en:The Best Halloween Ever
01:33:38.000 : en:End Titles
Скриншоты
Скачать

Скачать торрент!

Как скачивать? · Что такое торрент? · Рейтинг и ограничения

Сайт не распространяет и не хранит электронные версии произведений, а лишь предоставляет доступ к создаваемому пользователями каталогу ссылок на торрент-файлы, которые содержат только списки хеш-сумм

[Профиль] [ЛС]
Показать сообщения:    
Ответить на тему

Текущее время: Сегодня 11:55

Часовой пояс: GMT + 4



Вы не можете начинать темы
Вы не можете отвечать на сообщения
Вы не можете редактировать свои сообщения
Вы не можете удалять свои сообщения
Вы не можете голосовать в опросах
Вы не можете прикреплять файлы к сообщениям
Вы не можете скачивать файлы