Чёрное и белое / Black and White (Джеймс Тобэк / James Toback) [1999, США, криминал, драма, музыка, WEB-DL 720p] DVO (НТВ+) + Sub Eng + Original Eng

Ответить на тему
 
Автор Сообщение

user ®

Стаж: 7 лет 7 месяцев

Сообщений: 20008

Пост Пост: #1 от 03-Сен-2015 15:45

[Цитировать]

Чёрное и белое / Black and White
Страна: США
Студия: Bigel / Mailer Films, Palm Pictures
Жанр: криминал, драма, музыка
Год выпуска: 1999
Продолжительность: 01:39:08
Перевод: Профессиональный (двухголосый закадровый) НТВ+
Cубтитры: английские
Оригинальная аудиодорожка: английский
Режиссер: Джеймс Тобэк / James Toback
В ролях: Бен Стиллер, Роберт Дауни мл., Элайджа Вуд, Скотт Каан, Стэйси Эдвардс, Аллан Хьюстон, Габи Хоффманн, Кидада Джонс, Майк Тайсон, Джаред Лето, Марла Мэйплс, Джо Пантольяно, Рэйквон, Клаудия Шиффер, Уильям Ли Скотт, Брук Шилдс, Эдди Кэй Томас, Бретт Рэтнер, Метод Мэн и др.
Описание: Данный фильм - исследование загадочного мира Манхэттена, странного места, где друг друга знают все без исключения: дети богатых и бедных, рэпперы, влиятельные адвокаты, звёзды баскетбола, — и из всей этой разношёрстной публики получается бесподобный коктейль, замешанный на сексе, музыке и убийствах.
II Сэмпл II IMDB II
Тип релиза: WEB-DL 720p
Контейнер: MKV
Видео: AVC / 1280x720 / 16:9 / 23.976fps / Bit rate 3878Kbps
Аудио 1: AC3 / 48.0 KHz / 2ch. / 192kbps / rus / dvo / НТВ+
Аудио 2: AC3 / 48.0 KHz / 6ch. / 448kbps / eng
Формат субтитров: softsub (SRT)
MediaInfo
Общее
Уникальный идентификатор : 212602388647646361202203001912526257111 (0x9FF1BB0C2BF4F95D9DDD0A5297623BD7)
Полное имя : G:\!!!_torrent\Black.and.White.1999.WEB-DL.720p_by_vedigo.mkv
Формат : Matroska
Версия формата : Version 4 / Version 2
Размер файла : 3,19 Гбайт
Продолжительность : 1 ч. 39 м.
Общий поток : 4610 Кбит/сек
Название фильма : Black.and.White.1999.WEB-DL.720p_by_vedigo
Дата кодирования : UTC 2015-08-25 01:45:56
Программа кодирования : mkvmerge v8.3.0 ('Over the Horizon') 64bit
Библиотека кодирования : libebml v1.3.1 + libmatroska v1.4.2
DURATION : 01:31:48.003000000
NUMBER_OF_FRAMES : 1502
NUMBER_OF_BYTES : 79485
_STATISTICS_WRITING_APP : mkvmerge v8.3.0 ('Over the Horizon') 64bit
_STATISTICS_WRITING_DATE_UTC : 2015-08-25 01:45:56
_STATISTICS_TAGS : BPS DURATION NUMBER_OF_FRAMES NUMBER_OF_BYTES
Видео
Идентификатор : 1
Формат : AVC
Формат/Информация : Advanced Video Codec
Профиль формата : High@L3.1
Параметр CABAC формата : Нет
Параметр ReFrames формата : 2 кадра
Идентификатор кодека : V_MPEG4/ISO/AVC
Продолжительность : 1 ч. 39 м.
Битрейт : 3878 Кбит/сек
Ширина : 1280 пикселей
Высота : 720 пикселей
Соотношение сторон : 16:9
Режим частоты кадров : Постоянный
Частота кадров : 23,976 кадра/сек
Цветовое пространство : YUV
Субдискретизация насыщенности : 4:2:0
Битовая глубина : 8 бит
Тип развёртки : Прогрессивная
Бит/(Пиксели*Кадры) : 0.176
Размер потока : 2,69 Гбайт (84%)
Заголовок : Black.and.White.1999.WEB-DL.720p_by_vedigo
Default : Да
Forced : Нет
Цветовой диапазон : Limited
Основные цвета : BT.709
Характеристики трансфера : BT.709
Коэффициенты матрицы : BT.709
Аудио #1
Идентификатор : 2
Формат : AC-3
Формат/Информация : Audio Coding 3
Расширение режима : CM (complete main)
Параметр Endianness формата : Big
Идентификатор кодека : A_AC3
Продолжительность : 1 ч. 39 м.
Вид битрейта : Постоянный
Битрейт : 192 Кбит/сек
Каналы : 2 канала
Расположение каналов : Front: L R
Частота : 48,0 КГц
Метод сжатия : С потерями
Размер потока : 136 Мбайт (4%)
Заголовок : DVO @ НТВ+
Язык : Russian
Default : Да
Forced : Нет
Аудио #2
Идентификатор : 3
Формат : AC-3
Формат/Информация : Audio Coding 3
Расширение режима : CM (complete main)
Параметр Endianness формата : Big
Идентификатор кодека : A_AC3
Продолжительность : 1 ч. 39 м.
Вид битрейта : Постоянный
Битрейт : 448 Кбит/сек
Каналы : 6 каналов
Расположение каналов : Front: L C R, Side: L R, LFE
Частота : 48,0 КГц
Метод сжатия : С потерями
Размер потока : 318 Мбайт (10%)
Заголовок : original
Язык : English
Default : Нет
Forced : Нет
Текст
Идентификатор : 4
Формат : UTF-8
Идентификатор кодека : S_TEXT/UTF8
Идентификатор кодека/Информация : UTF-8 Plain Text
Заголовок : subtitle eng
Язык : English
Default : Нет
Forced : Нет
Меню
00:00:00.000 : en:Chapter 1
00:07:29.000 : en:Chapter 2
00:14:14.000 : en:Chapter 3
00:22:33.000 : en:Chapter 4
00:28:10.000 : en:Chapter 5
00:33:54.000 : en:Chapter 6
00:42:05.000 : en:Chapter 7
00:48:29.000 : en:Chapter 8
00:54:29.000 : en:Chapter 9
00:58:02.000 : en:Chapter 10
01:05:00.000 : en:Chapter 11
01:11:16.000 : en:Chapter 12
01:16:26.000 : en:Chapter 13
01:24:45.000 : en:Chapter 14
01:28:20.000 : en:Chapter 15
01:31:17.000 : en:Chapter 16
Скриншоты
Скачать

Скачать торрент!

Как скачивать? · Что такое торрент? · Рейтинг и ограничения

Сайт не распространяет и не хранит электронные версии произведений, а лишь предоставляет доступ к создаваемому пользователями каталогу ссылок на торрент-файлы, которые содержат только списки хеш-сумм

[Профиль] [ЛС]
Показать сообщения:    
Ответить на тему

Текущее время: Сегодня 04:16

Часовой пояс: GMT + 4



Вы не можете начинать темы
Вы не можете отвечать на сообщения
Вы не можете редактировать свои сообщения
Вы не можете удалять свои сообщения
Вы не можете голосовать в опросах
Вы не можете прикреплять файлы к сообщениям
Вы не можете скачивать файлы