Воздушная скорость / Airspeed (Роберт Тиннелл / Robert Tinnell) [1999, США, Канада, боевик, драма, приключения, WEB-DL 720p] MVO + Sub Eng + Original Eng

Ответить на тему
 
Автор Сообщение

user ®

Стаж: 7 лет 7 месяцев

Сообщений: 20008

Пост Пост: #1 от 03-Сен-2015 12:39

[Цитировать]

Воздушная скорость / Airspeed
Страна: США, Канада
Студия: Airspeed Productions Inc., Melenny Productions, The Government of Canada Income Tax Credit Program
Жанр: боевик, драма, приключения
Год выпуска: 1999
Продолжительность: 01:27:49
Перевод: Профессиональный (многоголосый закадровый)
Cубтитры: английские
Оригинальная аудиодорожка: английский
Режиссер: Роберт Тиннелл / Robert Tinnell
В ролях: Элиша Катберт, Бронуэн Бут, Джо Мантенья, Линн Адамс, Расселл Юэнь, Дон Джордан, Мартин Лакруа, Чарльз Пауэлл…
Описание: Преуспевающий бизнесмен хочет, чтобы на банкете, где он будет произносить речь, присутствовала его 13-летняя дочь, с которой у отца как-то не складываются отношения. Бизнесмен отправляет за дочкой свой личный самолет. Частный "Боинг" попадает в бурю и получает удар молнией, после чего практически все приборы выходят из строя, а пилоты теряют сознание. Катастрофа неизбежна. Потому что в салоне самолета, кроме девочки, есть только пара сотрудников папашиной компании, которые также от полученных травм сидят в креслах в бессознательном состоянии. Что может сделать одна девочка-подросток?
II Сэмпл II IMDB II
Доп. информация:
За русскую дорогу спасибо Grapapulas
Тип релиза: WEB-DL 720p
Контейнер: MKV
Видео: AVC / 1280x690 / 1.85:1 / 23.976fps / Bit rate 4134Kbps
Аудио 1: AC3 / 48.0KHz / 6ch. / 448kbps / rus / mvo
Аудио 2: AC3 / 48.0KHz / 6ch. / 448kbps / eng / DVD
Аудио 3: AAC-LC / 48.0KHz / 2ch. / 128kbps / eng / WEB-DL.720p
Формат субтитров: softsub (SRT)
MediaInfo
Общее
Уникальный идентификатор : 186784014401836840146413742450853079998 (0x8C854AEAE8D8F0C78213C6C1C3A0EBBE)
Полное имя : G:\!!!_torrent\Airspeed.1999.WEB-DL.720p_by_vedigo.mkv
Формат : Matroska
Версия формата : Version 4 / Version 2
Размер файла : 3,22 Гбайт
Продолжительность : 1 ч. 27 м.
Общий поток : 5241 Кбит/сек
Название фильма : Airspeed.1999.WEB-DL.720p_by_vedigo
Дата кодирования : UTC 2015-08-23 22:47:11
Программа кодирования : mkvmerge v8.3.0 ('Over the Horizon') 64bit
Библиотека кодирования : libebml v1.3.1 + libmatroska v1.4.2
DURATION : 01:27:49.664000000
NUMBER_OF_FRAMES : 164677
NUMBER_OF_BYTES : 295101184
_STATISTICS_WRITING_APP : mkvmerge v8.3.0 ('Over the Horizon') 64bit
_STATISTICS_WRITING_DATE_UTC : 2015-08-23 22:47:11
_STATISTICS_TAGS : BPS DURATION NUMBER_OF_FRAMES NUMBER_OF_BYTES
Видео
Идентификатор : 1
Формат : AVC
Формат/Информация : Advanced Video Codec
Профиль формата : High@L3.1
Параметр CABAC формата : Нет
Параметр ReFrames формата : 2 кадра
Идентификатор кодека : V_MPEG4/ISO/AVC
Продолжительность : 1 ч. 27 м.
Ширина : 1280 пикселей
Высота : 690 пикселей
Соотношение сторон : 1,85:1
Режим частоты кадров : Постоянный
Частота кадров : 23,976 кадра/сек
Цветовое пространство : YUV
Субдискретизация насыщенности : 4:2:0
Битовая глубина : 8 бит
Тип развёртки : Прогрессивная
Заголовок : Airspeed.1999.WEB-DL.720p_by_vedigo
Default : Да
Forced : Нет
Цветовой диапазон : Limited
Основные цвета : BT.709
Характеристики трансфера : BT.709
Коэффициенты матрицы : BT.709
Аудио #1
Идентификатор : 2
Формат : AC-3
Формат/Информация : Audio Coding 3
Расширение режима : CM (complete main)
Параметр Endianness формата : Big
Идентификатор кодека : A_AC3
Продолжительность : 1 ч. 27 м.
Вид битрейта : Постоянный
Битрейт : 448 Кбит/сек
Каналы : 6 каналов
Расположение каналов : Front: L C R, Side: L R, LFE
Частота : 48,0 КГц
Метод сжатия : С потерями
Размер потока : 281 Мбайт (9%)
Заголовок : MVO
Язык : Russian
Default : Да
Forced : Нет
Аудио #2
Идентификатор : 3
Формат : AC-3
Формат/Информация : Audio Coding 3
Расширение режима : CM (complete main)
Параметр Endianness формата : Big
Идентификатор кодека : A_AC3
Продолжительность : 1 ч. 27 м.
Вид битрейта : Постоянный
Битрейт : 448 Кбит/сек
Каналы : 6 каналов
Расположение каналов : Front: L C R, Side: L R, LFE
Частота : 48,0 КГц
Метод сжатия : С потерями
Размер потока : 281 Мбайт (9%)
Заголовок : original @ DVD
Язык : English
Default : Нет
Forced : Нет
Аудио #3
Идентификатор : 4
Формат : AAC
Формат/Информация : Advanced Audio Codec
Профиль формата : LC
Идентификатор кодека : A_AAC
Продолжительность : 1 ч. 27 м.
Каналы : 2 канала
Расположение каналов : Front: L R
Частота : 48,0 КГц
Метод сжатия : С потерями
Заголовок : original @ WEB-DL.720p
Язык : English
Default : Нет
Forced : Нет
Текст
Идентификатор : 5
Формат : UTF-8
Идентификатор кодека : S_TEXT/UTF8
Идентификатор кодека/Информация : UTF-8 Plain Text
Заголовок : subtitle eng
Язык : English
Default : Нет
Forced : Нет
Меню
00:00:00.000 : en:Chapter 1
00:03:00.000 : en:Chapter 2
00:11:55.000 : en:Chapter 3
00:20:04.000 : en:Chapter 4
00:27:02.000 : en:Chapter 5
00:34:12.000 : en:Chapter 6
00:43:28.000 : en:Chapter 7
00:52:15.000 : en:Chapter 8
00:59:29.000 : en:Chapter 9
01:06:30.000 : en:Chapter 10
01:14:00.000 : en:Chapter 11
01:24:47.000 : en:Chapter 12
Скриншоты
Скачать

Скачать торрент!

Как скачивать? · Что такое торрент? · Рейтинг и ограничения

Сайт не распространяет и не хранит электронные версии произведений, а лишь предоставляет доступ к создаваемому пользователями каталогу ссылок на торрент-файлы, которые содержат только списки хеш-сумм

[Профиль] [ЛС]
Показать сообщения:    
Ответить на тему

Текущее время: Сегодня 08:39

Часовой пояс: GMT + 4



Вы не можете начинать темы
Вы не можете отвечать на сообщения
Вы не можете редактировать свои сообщения
Вы не можете удалять свои сообщения
Вы не можете голосовать в опросах
Вы не можете прикреплять файлы к сообщениям
Вы не можете скачивать файлы