Миленький ты мой (Тимур Золоев) [1992, Мелодрама, SATRip] Sub Ukr

Ответить на тему
 
Автор Сообщение

user ®

Стаж: 7 лет 7 месяцев

Сообщений: 20008

Пост Пост: #1 от 02-Сен-2015 21:12

[Цитировать]

Миленький ты мой
Жанр: Мелодрама
Год выпуска: 1992
Продолжительность: 1:13:36
Cубтитры: Украинские
Режиссёр: Тимур Золоев
В ролях: Юрий Шлыков, Лидия Ежевская, Владимир Антонов, Нина Шаролапова, Евгений Паперный, Марина Старых, Людмила Лобза, В. Волков, Дмитрий Наливайчук, Михаил Резниченко
Описание: Попытки спившегося сорокалетнего актера Александра Никитина вернуться к творческой жизни терпят неудачу. От Александра ушла жена, но появились «друзья» для вечного запоя и похмелья. И в этой его странной жизни появляется ангел-спаситель в образе милой театралки из провинции — Жени Сундуковой. Настойчивость, мягкий юмор, провинциальная прямолинейность и женское обаяние Жени возвращают Александра к прежней жизни.
Доп. информация: Местами всплывают рекламные банеры
Сэмпл: https://www.sendspace.com/file/7pss1z
Качество видео: SATRip
Формат видео: AVI
Видео: XviD MPEG-4 , 704x528 (1.33:1) , 25 fps , 1 923 Kbps
Аудио: AC3 , 48 kHz , 192.00 kbps avg , 2/0 (L,R) ch
Формат субтитров: hardsub (неотключаемые)
MediaInfo
Complete name Миленький ты мой 1992.avi
Format : AVI
Format/Info : Audio Video Interleave
File size : 1.09 GiB
Duration : 1h 13mn
Overall bit rate : 2 125 Kbps
Writing application : VirtualDubMod 1.5.10.3 | www.virtualdub-fr.org || (build 2550/release)
Writing library : VirtualDubMod build 2550/release
Video
ID : 0
Format : MPEG-4 Visual
Format profile : Advanced Simple@L5
Format settings, BVOP : 1
Format settings, QPel : No
Format settings, GMC : No warppoints
Format settings, Matrix : Default (MPEG)
Codec ID : XVID
Codec ID/Hint : XviD
Duration : 1h 13mn
Bit rate : 1 923 Kbps
Width : 704 pixels
Height : 528 pixels
Display aspect ratio : 4:3
Frame rate : 25.000 fps
Color space : YUV
Chroma subsampling : 4:2:0
Bit depth : 8 bits
Scan type : Progressive
Compression mode : Lossy
Bits/(Pixel*Frame) : 0.207
Stream size : 1 012 MiB (91%)
Writing library : XviD 1.2.1 (UTC 2008-12-04)
Audio
ID : 1
Format : AC-3
Format/Info : Audio Coding 3
Mode extension : CM (complete main)
Format settings, Endianness : Big
Codec ID : 2000
Duration : 1h 13mn
Bit rate mode : Constant
Bit rate : 192 Kbps
Channel(s) : 2 channels
Channel positions : Front: L R
Sampling rate : 48.0 KHz
Compression mode : Lossy
Stream size : 101 MiB (9%)
Alignment : Split accross interleaves
Interleave, duration : 40 ms (1.00 video frame)
Interleave, preload duratio : 500 ms
Скриншоты
Скачать

Скачать торрент!

Как скачивать? · Что такое торрент? · Рейтинг и ограничения

Сайт не распространяет и не хранит электронные версии произведений, а лишь предоставляет доступ к создаваемому пользователями каталогу ссылок на торрент-файлы, которые содержат только списки хеш-сумм

[Профиль] [ЛС]
Показать сообщения:    
Ответить на тему

Текущее время: Сегодня 04:22

Часовой пояс: GMT + 4



Вы не можете начинать темы
Вы не можете отвечать на сообщения
Вы не можете редактировать свои сообщения
Вы не можете удалять свои сообщения
Вы не можете голосовать в опросах
Вы не можете прикреплять файлы к сообщениям
Вы не можете скачивать файлы