Живой щит / Champion (Падам Кумар / Padam Kumar, Jana Sue Memel / Яна Сью Мемел) [2000, Индия, Боевик, триллер, драма, WEBRip] DVO (Арена)

Ответить на тему
 
Автор Сообщение

user ®

Стаж: 12 лет

Сообщений: 15092

Пост Пост: #1 от 01-Сен-2015 23:27

[Цитировать]

Живой щит / Champion
Страна: Индия
Жанр: Боевик, триллер, драма
Год выпуска: 2000
Продолжительность: 02:28:51
Перевод: Любительский (двухголосый закадровый) Арена
Cубтитры: нет
Режиссеры: Падам Кумар / Padam Kumar, Jana Sue Memel / Яна Сью Мемел
В ролях: Санни Деол, Маниша Койрала, Рахул Дев, Абхишек Шарма, Кашмира Шах, Том Олтер, Рана Юнг Бахадур, Мастер Кевалья Чедха, Камал Чопра, Викрам Гокхале
Описание: В результате диверсии, совершенной маньяком-убийцей, погиб крупный промышленник Мансур Али Кхан. Полиция осознает, что следующей жертвой может оказаться наследник его многомиллионного состояния, малолетний сын Аббас. Для охраны ребенка нанимают профессионального телохранителя Раджвира. Ему помогает воспитательница Сапна. Тем временем маньяк начинает охоту на ребенка…
Доп. информация: Сведение звука: oktober (Спасибо!)
Сэмпл: http://multi-up.com/1064689
Качество видео: WEBRip
Формат видео: AVI
Видео: XviD build 50, 688x288 (2.39:1), 25 fps, 1267 kbps avg
Аудио: MPEG Layer 3, 48 kHz, 2/0 (L,R) ch, 128.00 kbps
MediaInfo
General
Complete name : F:\Живой щит\Zhivoy.shit.2000.WEBRip.avi
Format : AVI
Format/Info : Audio Video Interleave
File size : 1.46 GiB
Duration : 2h 28mn
Overall bit rate : 1 406 Kbps
Writing application : VirtualDubMod 1.5.10.2 (build 2540/release)
Writing library : VirtualDubMod build 2540/release
Video
ID : 0
Format : MPEG-4 Visual
Format profile : AdvancedSimple@L5
Format settings, BVOP : Yes
Format settings, QPel : No
Format settings, GMC : No warppoints
Format settings, Matrix : Custom
Codec ID : XVID
Codec ID/Hint : XviD
Duration : 2h 28mn
Bit rate : 1 268 Kbps
Width : 688 pixels
Height : 288 pixels
Display aspect ratio : 2.35
Frame rate : 25.000 fps
Resolution : 24 bits
Colorimetry : 4:2:0
Scan type : Progressive
Bits/(Pixel*Frame) : 0.256
Stream size : 1.32 GiB (90%)
Writing library : XviD 1.2.1 (UTC 2008-12-04)
Audio
ID : 1
Format : MPEG Audio
Format version : Version 1
Format profile : Layer 3
Codec ID : 55
Codec ID/Hint : MP3
Duration : 2h 28mn
Bit rate mode : Constant
Bit rate : 128 Kbps
Channel(s) : 2 channels
Sampling rate : 48.0 KHz
Resolution : 16 bits
Stream size : 136 MiB (9%)
Alignment : Aligned on interleaves
Interleave, duration : 40 ms (1.00 video frame)
Interleave, preload duration : 504 ms
Скриншоты
Скачать

Скачать торрент! Живой щит / Champion (Падам Кумар / Padam Kumar, Jana Sue Memel / Яна Сью Мемел) [2000, Индия, Боевик, триллер, драма, WEBRip] DVO (Арена)

Как скачивать? · Что такое торрент? · Рейтинг и ограничения

Сайт не распространяет и не хранит электронные версии произведений, а лишь предоставляет доступ к создаваемому пользователями каталогу ссылок на торрент-файлы, которые содержат только списки хеш-сумм

[Профиль] [ЛС]
Показать сообщения:    
Ответить на тему

Текущее время: Сегодня 18:16

Часовой пояс: GMT + 4



Вы не можете начинать темы
Вы не можете отвечать на сообщения
Вы не можете редактировать свои сообщения
Вы не можете удалять свои сообщения
Вы не можете голосовать в опросах
Вы не можете прикреплять файлы к сообщениям
Вы не можете скачивать файлы