Бомбейский бархат / Bombay Velvet (Анураг Кашьяп / Anurag Kashyap) [2015, Индия, Драма, HDRip] Sub Rus + Original

Ответить на тему
 
Автор Сообщение

user ®

Стаж: 12 лет

Сообщений: 15092

Пост Пост: #1 от 30-Авг-2015 21:57

[Цитировать]

Бомбейский бархат / Bombay Velvet
Страна: Индия
Жанр: Драма
Год выпуска: 2015
Продолжительность: 02:30:23-Перевод: Субтитры
Cубтитры: Русские
Оригинальная дорожка: Хинди
Перевод и редакция: jyoti-Режиссер: Анураг Кашьяп / Anurag Kashyap-В ролях: Ранбир Капур, Анушка Шарма, Каран Джохар, Мукеш Чхабра, Маниш Чаудхари-Описание: Бомбей, сухой закон, лихие шестидесятые… Под джазовые мелодии кучка цивилизованных бандитов делит и без того поделенную Индию на мелкие кусочки. Как в этом полном зубастых акул море выжить мелким рыбешкам вроде уличных воришек Балраджа и Чиммана? Ответ один: надо самим стать акулами. Но того, кто рожден на улице, во дворцах не ждут. И пусть теперь ты Джонни Балрадж, менеджер отчаянно популярного ночного клуба «Бомбейский бархат», большим человеком тебе никогда не стать. А, может, все-таки..? Но как быть с любовью, которая, непрошенная, стучится в двери и заставляет поступать не так разумно, как хотелось бы? Рози Норона, femme fatale, изменит жизнь и либо погубит новоявленного босса, либо вознесет на новую вершину… (jyoti)- | --Качество видео: HDRip
Формат видео: AVI-Видео: 720x304 (2.37:1), 24.000 fps, XviD build 50 ~1059 kbps
Аудио: 48 kHz, AC3 Dolby Digital, 3/2 (L,C,R,l,r) + LFE ch, ~320.00 kbps
Формат субтитров: hardsub (неотключаемые, вшитые в картинку)-Сэмпл-Релиз:
Перевод, редакция: jyoti (спасибо!)
Риппер: soso4eg- -Скриншот с названием
-
Скриншоты
-
MI
General
Complete name : H:\Bombeyskiy.Barhat.2015.HDRip.XviD.BwTorrents.avi
Format : AVI
Format/Info : Audio Video Interleave
File size : 1.46 GiB
Duration : 2h 30mn
Overall bit rate : 1 389 Kbps
Movie name : Bombeyskiy.Barhat.2015.HDRip.XviD.BwTorrents
Writing application : VirtualDubMod 1.5.10.2 (build 2540/release)
Video
ID : 0
Format : MPEG-4 Visual
Format profile : Advanced Simple@L5
Format settings, BVOP : 1
Format settings, QPel : No
Format settings, GMC : No warppoints
Format settings, Matrix : Default (H.263)
Codec ID : XVID
Codec ID/Hint : XviD
Duration : 2h 30mn
Bit rate : 1 060 Kbps
Width : 720 pixels
Height : 304 pixels
Display aspect ratio : 2.35:1
Frame rate : 24.000 fps
Color space : YUV
Chroma subsampling : 4:2:0
Bit depth : 8 bits
Scan type : Progressive
Compression mode : Lossy
Bits/(Pixel*Frame) : 0.202
Stream size : 1.11 GiB (76%)
Writing library : XviD 1.2.1 (UTC 2008-12-04)
Audio
ID : 1
Format : AC-3
Format/Info : Audio Coding 3
Mode extension : CM (complete main)
Format settings, Endianness : Big
Codec ID : 2000
Duration : 2h 30mn
Bit rate mode : Constant
Bit rate : 320 Kbps
Channel(s) : 6 channels
Channel positions : Front: L C R, Side: L R, LFE
Sampling rate : 48.0 KHz
Bit depth : 16 bits
Compression mode : Lossy
Stream size : 344 MiB (23%)
Alignment : Split accross interleaves
Interleave, duration : 42 ms (1.00 video frame)
Interleave, preload duration : 500 ms
Скачать

Скачать торрент! Бомбейский бархат / Bombay Velvet (Анураг Кашьяп / Anurag Kashyap) [2015, Индия, Драма, HDRip] Sub Rus + Original

Как скачивать? · Что такое торрент? · Рейтинг и ограничения

Сайт не распространяет и не хранит электронные версии произведений, а лишь предоставляет доступ к создаваемому пользователями каталогу ссылок на торрент-файлы, которые содержат только списки хеш-сумм

[Профиль] [ЛС]
Показать сообщения:    
Ответить на тему

Текущее время: Сегодня 11:06

Часовой пояс: GMT + 4



Вы не можете начинать темы
Вы не можете отвечать на сообщения
Вы не можете редактировать свои сообщения
Вы не можете удалять свои сообщения
Вы не можете голосовать в опросах
Вы не можете прикреплять файлы к сообщениям
Вы не можете скачивать файлы