Доктор (Владимир Панков) [2012, арт-хаус, драма, DVDRip]

Ответить на тему
 
Автор Сообщение

user ®

Стаж: 7 лет 7 месяцев

Сообщений: 20008

Пост Пост: #1 от 30-Авг-2015 06:27

[Цитировать]

Доктор
Жанр: арт-хаус, драма
Год выпуска: 2012
Продолжительность: 01:35:02
Режиссёр: Владимир Панков
В ролях: Андрей Заводюк, Александр Кудрявцев (II), Сергей Родюков, Алиса Эстрина, Татьяна Кличановская, Павел Акимкин, Ольга Герчакова, Сергей Агафонов (III), Людмила Шергина, Инга Сметанина, Ирина Рындина, Алексей Черных, Юрий Лопарёв, Алина Ольшанская, Пётр Маркин, Алексей Багдасаров, Дмитрий Журавлёв (III), Дмитрий Поддубный, Татьяна Майст, Анастасия Сычева, Евгений Сангаджиев, Сергей Шевченко, Сэсэг Хапсасова, Елена Горина, Ольга Бергер, Артем Тульчинский
Описание: Фильм поставлен по мотивам спектакля Владимира Панкова «Dос.тор».
Главный герой – хирург Андрей. Он прошел путь от молодого врача до профессионала. На его долю выпало преодоление чудовищных реалий российской действительности: работа в отсутствие медикаментов и аппаратуры, когда полагаться можно только на интуицию. Его жизнь – ежедневный подвиг спасения человеческих жизней в нечеловеческих условиях. Впрочем, сам он свою жизнь подвигом не считает: он просто выполняет свою работу…
Доп. информация:
Сэмпл: http://multi-up.com/1064385
Качество видео: DVDRip
Формат видео: AVI
Видео: XVID, 720x400, 16:9, 25,000 кадров/сек, 1741 Кбит/сек
Аудио: русский, AC-3, 48,0 КГц, 448 Кбит/сек, 6 каналов(Front: L C R, Side: L R, LFE)
MediaInfo
Формат : AVI
Формат/Информация : Audio Video Interleave
Размер файла : 1,46 Гбайт
Продолжительность : 1 ч. 35 м.
Общий поток : 2199 Кбит/сек
Программа кодирования : VirtualDubMod 1.5.10.3 | www.virtualdub-fr.org || (build 2550/release)
Библиотека кодирования : VirtualDubMod build 2550/release
Видео
Идентификатор : 0
Формат : MPEG-4 Visual
Профиль формата : Advanced Simple@L5
Параметр BVOP формата : 2
Параметр QPel формата : Нет
Параметр GMC формата : Без точки перехода
Параметр матрицы формата : Default (MPEG)
Идентификатор кодека : XVID
Идентификатор кодека/Подсказка : XviD
Продолжительность : 1 ч. 35 м.
Битрейт : 1741 Кбит/сек
Ширина : 720 пикселей
Высота : 400 пикселей
Соотношение сторон : 16:9
Частота кадров : 25,000 кадров/сек
Цветовое пространство : YUV
Субдискретизация насыщенности : 4:2:0
Битовая глубина : 8 бит
Тип развёртки : Прогрессивная
Метод сжатия : С потерями
Бит/(Пиксели*Кадры) : 0.242
Размер потока : 1,16 Гбайт (79%)
Библиотека кодирования : XviD 1.2.1 (UTC 2008-12-04)
Аудио
Идентификатор : 1
Формат : AC-3
Формат/Информация : Audio Coding 3
Расширение режима : CM (complete main)
Параметр Endianness формата : Big
Идентификатор кодека : 2000
Продолжительность : 1 ч. 35 м.
Вид битрейта : Постоянный
Битрейт : 448 Кбит/сек
Каналы : 6 каналов
Расположение каналов : Front: L C R, Side: L R, LFE
Частота : 48,0 КГц
Битовая глубина : 16 бит
Метод сжатия : С потерями
Размер потока : 305 Мбайт (20%)
Выравнивание : Разделение по промежуткам
Продолжительность промежутка : 40 мс. (1,00 видеокадр)
Время предзагрузки промежутка : 500 мс.
Скриншот c названием фильма Скриншоты
Скачать

Скачать торрент!

Как скачивать? · Что такое торрент? · Рейтинг и ограничения

Сайт не распространяет и не хранит электронные версии произведений, а лишь предоставляет доступ к создаваемому пользователями каталогу ссылок на торрент-файлы, которые содержат только списки хеш-сумм

[Профиль] [ЛС]
Показать сообщения:    
Ответить на тему

Текущее время: Сегодня 22:34

Часовой пояс: GMT + 4



Вы не можете начинать темы
Вы не можете отвечать на сообщения
Вы не можете редактировать свои сообщения
Вы не можете удалять свои сообщения
Вы не можете голосовать в опросах
Вы не можете прикреплять файлы к сообщениям
Вы не можете скачивать файлы